Tags
Language
Tags

Joshua Redman Quartet - Come What May (2019)

Posted By: delpotro
Joshua Redman Quartet - Come What May (2019)

Joshua Redman Quartet - Come What May (2019)
EAC Rip | FLAC (tracks+log+.cue) - 255 Mb | MP3 CBR 320 kbps - 99 Mb | 00:43:10
Jazz | Label: Nonesuch Records

Joshua Redman Quartet’s new album, Come What May, will be released on Nonesuch Records on March 29, 2019. This is the first recording in almost two decades for this group of musicians: the recently Grammy-nominated saxophonist and his longtime friends and colleagues pianist Aaron Goldberg, bassist Reuben Rogers, and drummer Gregory Hutchinson. Previous releases were Beyond (2000) and Passage of Time (2001). The Quartet, which has toured internationally over the last several years, recorded seven Redman tunes for Come What May.

The Guardian has called Redman “one of the 21st century’s finest jazz improvisers,” and the Boston Globe said of the group’s recent Newport Jazz Festival performance, “There was tenor Joshua Redman with his quartet, showing how to build excitement and get the crowd screaming without pressing or compromising his art.” The Joshua Redman Quartet tours internationally throughout this winter, spring, and summer; see tour dates below. Come What May is available to pre-order now from iTunes and the Nonesuch Store, where it includes an instant download of the album track “How We Do" which you can hear below; it will also stream at Spotify and Apple Music. Nonesuch Store pre-orders also include an exclusive, limited-edition print autographed by the Quartet while supplies last.

Redman recently said of Goldberg, Rogers, and Hutchinson, in Denver’s Westword newspaper, “They’re some of my favorite musicians in the world. We’ve played so much over the years and have been together on the road so much, on and off the bandstand, there’s just that sort of camaraderie and friendship and genuine love for and understanding of each other that, for me, [is] the ideal situation for making music. When you have that level of trust and empathy, both musically and personally, it allows you to be truly relaxed and free; and those are really good pre-conditions for magic to potentially happen.

Joshua Redman’s first album on Nonesuch was the Grammy-nominated Momentum (2005). His other releases on the label include Back East, Compass, and Trios Live, all of which explore the trio format; MoodSwing (1994, re-issued); Walking Shadows (2013), his first recording to include an orchestral ensemble; The Bad Plus Joshua Redman (2015), a collaboration with the acclaimed trio; Nearness (2016), a duo album with longtime friend and collaborator Brad Mehldau; and the 2018 Grammy-nominated Still Dreaming—an album inspired by his father Dewey Redman’s 1976–1987 band, Old and New Dreams.
Tracklist:
1. Circle of Life
2. I'll Go Mine
3. Come What May
4. How We Do
5. DGAF
6. Stagger Bear
7. Vast

Exact Audio Copy V1.3 from 2. September 2016

EAC extraction logfile from 26. September 2019, 9:10

Joshua Redman Quartet / Come What May

Used drive : ATAPI iHBS112 2 Adapter: 1 ID: 1

Read mode : Secure
Utilize accurate stream : Yes
Defeat audio cache : Yes
Make use of C2 pointers : No

Read offset correction : 6
Overread into Lead-In and Lead-Out : No
Fill up missing offset samples with silence : Yes
Delete leading and trailing silent blocks : No
Null samples used in CRC calculations : Yes
Used interface : Native Win32 interface for Win NT & 2000
Gap handling : Appended to previous track

Used output format : User Defined Encoder
Selected bitrate : 768 kBit/s
Quality : High
Add ID3 tag : No
Command line compressor : C:\Program Files (x86)\Exact Audio Copy\Flac\flac.exe
Additional command line options : -8 -V -T "ARTIST=%artist%" -T "TITLE=%title%" -T "ALBUM=%albumtitle%" -T "DATE=%year%" -T "TRACKNUMBER=%tracknr%" -T "GENRE=%genre%" -T "PERFORMER=%albuminterpret%" -T "COMPOSER=%composer%" -T "ALBUMARTIST=%albumartist%" -T "DISCNUMBER=%cdnumber%" -T "TOTALDISCS=%totalcds%" -T "TOTALTRACKS=%numtracks%" -T "COMMENT=EAC Secure Mode, Test & Copy, AccurateRip, FLAC -8" %source% -o %dest%


TOC of the extracted CD

Track | Start | Length | Start sector | End sector
––––––––––––––––––––––––––––-
1 | 0:00.00 | 6:55.05 | 0 | 31129
2 | 6:55.05 | 7:14.04 | 31130 | 63683
3 | 14:09.09 | 6:46.69 | 63684 | 94202
4 | 20:56.03 | 3:33.05 | 94203 | 110182
5 | 24:29.08 | 4:48.61 | 110183 | 131843
6 | 29:17.69 | 6:04.27 | 131844 | 159170
7 | 35:22.21 | 7:48.52 | 159171 | 194322


Track 1

Filename G:\DL\Joshua Redman Quartet - Come What May (2019) [FLAC]\01 - Circle of Life.wav

Pre-gap length 0:00:02.00

Peak level 99.4 %
Extraction speed 2.2 X
Track quality 100.0 %
Test CRC B25064DF
Copy CRC B25064DF
Accurately ripped (confidence 12) [3E3A4552] (AR v2)
Copy OK

Track 2

Filename G:\DL\Joshua Redman Quartet - Come What May (2019) [FLAC]\02 - I'll Go Mine.wav

Peak level 99.8 %
Extraction speed 2.6 X
Track quality 100.0 %
Test CRC B1B43C08
Copy CRC B1B43C08
Accurately ripped (confidence 13) [826B1E59] (AR v2)
Copy OK

Track 3

Filename G:\DL\Joshua Redman Quartet - Come What May (2019) [FLAC]\03 - Come What May.wav

Peak level 99.3 %
Extraction speed 2.9 X
Track quality 100.0 %
Test CRC 949A78E2
Copy CRC 949A78E2
Accurately ripped (confidence 13) [040DB8FE] (AR v2)
Copy OK

Track 4

Filename G:\DL\Joshua Redman Quartet - Come What May (2019) [FLAC]\04 - How We Do.wav

Pre-gap length 0:00:01.15

Peak level 99.8 %
Extraction speed 2.9 X
Track quality 100.0 %
Test CRC B7008F67
Copy CRC B7008F67
Accurately ripped (confidence 13) [C91DE9F1] (AR v2)
Copy OK

Track 5

Filename G:\DL\Joshua Redman Quartet - Come What May (2019) [FLAC]\05 - DGAF.wav

Pre-gap length 0:00:01.24

Peak level 99.8 %
Extraction speed 2.4 X
Track quality 99.9 %
Test CRC A6E29A60
Copy CRC A6E29A60
Accurately ripped (confidence 13) [9EE573EC] (AR v2)
Copy OK

Track 6

Filename G:\DL\Joshua Redman Quartet - Come What May (2019) [FLAC]\06 - Stagger Bear.wav

Pre-gap length 0:00:01.09

Peak level 99.8 %
Extraction speed 3.4 X
Track quality 100.0 %
Test CRC 020F9FA5
Copy CRC 020F9FA5
Accurately ripped (confidence 13) [6F41D80F] (AR v2)
Copy OK

Track 7

Filename G:\DL\Joshua Redman Quartet - Come What May (2019) [FLAC]\07 - Vast.wav

Pre-gap length 0:00:01.61

Peak level 99.8 %
Extraction speed 3.7 X
Track quality 100.0 %
Test CRC 969F4821
Copy CRC 969F4821
Accurately ripped (confidence 13) [E46E2733] (AR v2)
Copy OK


All tracks accurately ripped

No errors occurred

End of status report

–– CUETools DB Plugin V2.1.6

[CTDB TOCID: UFxWfLR2wPZ1EVoziv8MpKxVSdA-] found
Submit result: UFxWfLR2wPZ1EVoziv8MpKxVSdA- has been confirmed
Track | CTDB Status
1 | (60/61) Accurately ripped
2 | (59/61) Accurately ripped
3 | (60/61) Accurately ripped
4 | (60/61) Accurately ripped
5 | (60/61) Accurately ripped
6 | (60/61) Accurately ripped
7 | (60/61) Accurately ripped


==== Log checksum 773682A0EABC4DE4DFDA1EA87C822DFD0AD134A6C9CCF640E651E2789A2FDE3A ====

Thanks to the Original ripper dtromp !