Tags
Language
Tags

Joshua Redman, Ron Miles, Scott Colley & Brian Blade - Still Dreaming (2018) {Nonesuch 7559-79330-8} (Complete Artwork)

Posted By: ruskaval
Joshua Redman, Ron Miles, Scott Colley & Brian Blade - Still Dreaming (2018) {Nonesuch 7559-79330-8} (Complete Artwork)

Joshua Redman, Ron Miles, Scott Colley & Brian Blade - Still Dreaming (2018) {Nonesuch 7559-79330-8} (Complete Artwork)
EAC rip (secure mode) | FLAC (tracks)+CUE+LOG -> 244 Mb | MP3 @320 -> 96 Mb
Full Artwork @ 600 dpi (png) -> 195 Mb | 5% repair rar
© 2018 Nonesuch Records / Warner Music | 7559-79330-8
Jazz / Post Bop / Modern Creative / Saxophone / Cornet

On his buoyant 2018 album Still Dreaming, Joshua Redman evokes the spirit of his late father, saxophonist Dewey Redman (who died in 2006), and the elder Redman's adventurous work with longtime friend and bandleader Ornette Coleman. Specifically, the younger Redman draws inspiration from Coleman's Old and New Dreams band, which also featured his father along with cornetist Don Cherry, drummer Ed Blackwell, and bassist Charlie Haden. An outgrowth of Coleman's earlier '60s quartet, Old and New Dreams (which was active from 1976 to 1987) was a boundary-pushing ensemble rife with bluesy lyricism, atonal harmonics, and frenetic swing.

This was heady free jazz, but with an earthy '70s soulfulness. Much the same could be said of Redman's group here, as each of the players in his quartet, including trumpeter Ron Miles, bassist Scott Colley, and drummer Brian Blade, has a similarly kinetic, almost preternatural sense for group interplay. Here, they play a mix of newly penned originals plus two covers, inspired by Coleman's band but in their own thoughtfully mutative style. As modern-day torchbearers of Coleman's forward-thinking jazz sound, Redman and his bandmates are fairly well matched. Cornetist Miles has long evinced the probing qualities of Cherry's "freebop" style. Similarly, Blade has a driving, organic rhythmic sense that recalls Blackwell, and Colley literally studied with Haden. For Redman's part, the lithe, aqueous quality of his playing feels right at home within the slippery quartet. Tracks like the jaunty bop-inflected "New Year" and the nervy klezmer-funk of "Unanimity" feel like lost bonus tracks from This Is Our Music-era Coleman. Similarly, cuts like the languid "Haze and Aspirations," with its extended bass intro, and the spare, aptly titled "Blues for Charlie," with its call-and-response group improv, bring to mind the rootsy Old and New Dreams sound of the late '70s. Elsewhere, Redman applies a classical artist's sense for a reverent interpretation of Haden's "Playing" and Coleman's "Comme Il Faut," as he and his band vacillate between long dissonant lines and aggressive, molecular sparring.
Joshua Redman, Ron Miles, Scott Colley & Brian Blade - Still Dreaming (2018) {Nonesuch 7559-79330-8} (Complete Artwork)


Personnel:

Joshua Redman, tenor saxophone
Ron Miles, cornet
Scott Colley, bass
Brian Blade, drums

Tracks:

1. "New Year" (Scott Colley) 6:37
2. "Unanimity" (Redman) 5:09
3. "Haze and Aspirations" (Scott Colley) 5:57
4. "It's Not the Same" (Redman) 2:46
5. "Blues for Charlie" (Redman) 6:50
6. "Playing" (Charlie Haden) 3:17
7. "Comme Il Faut" (Ornette Coleman) 3:27
8. "The Rest" (Redman) 5:56

Exact Audio Copy V1.3 from 2. September 2016

EAC extraction logfile from 15. July 2018, 12:33

Joshua Redman, Ron Miles, Scott Colley & Brian Blade / Still Dreaming

Used drive : ASUS DRW-24F1ST a Adapter: 1 ID: 0

Read mode : Secure
Utilize accurate stream : Yes
Defeat audio cache : Yes
Make use of C2 pointers : No

Read offset correction : 6
Overread into Lead-In and Lead-Out : No
Fill up missing offset samples with silence : Yes
Delete leading and trailing silent blocks : No
Null samples used in CRC calculations : Yes
Used interface : Native Win32 interface for Win NT & 2000
Gap handling : Appended to previous track

Used output format : User Defined Encoder
Selected bitrate : 128 kBit/s
Quality : High
Add ID3 tag : No
Command line compressor : C:\Program Files (x86)\Exact Audio Copy\FLAC\FLAC.EXE
Additional command line options : -8 -V -T "ARTIST=%artist%" -T "TITLE=%title%" -T "ALBUM=%albumtitle%" -T "DATE=%year%" -T "TRACKNUMBER=%tracknr%" -T "TOTALTRACKS=%numtracks%" -T "GENRE=%genre%" -T "ALBUMARTIST=%albumartist%" -T "ALBUM ARTIST=%albumartist%" -T "COMMENT=EAC Secure Mode, Test & Copy, AccurateRip, FLAC -8" %source%


TOC of the extracted CD

Track | Start | Length | Start sector | End sector
––––––––––––––––––––––––––––-
1 | 0:00.00 | 6:37.36 | 0 | 29810
2 | 6:37.36 | 5:09.34 | 29811 | 53019
3 | 11:46.70 | 5:57.73 | 53020 | 79867
4 | 17:44.68 | 2:46.13 | 79868 | 92330
5 | 20:31.06 | 6:50.44 | 92331 | 123124
6 | 27:21.50 | 3:17.55 | 123125 | 137954
7 | 30:39.30 | 3:27.17 | 137955 | 153496
8 | 34:06.47 | 5:56.21 | 153497 | 180217


Track 1

Filename L:\EAC\01 - New Year.wav

Pre-gap length 0:00:02.00

Peak level 97.7 %
Extraction speed 4.7 X
Track quality 100.0 %
Test CRC 78180077
Copy CRC 78180077
Accurately ripped (confidence 3) [A807872F] (AR v2)
Copy OK

Track 2

Filename L:\EAC\02 - Unanimity.wav

Peak level 97.7 %
Extraction speed 5.2 X
Track quality 100.0 %
Test CRC 76FDA95A
Copy CRC 76FDA95A
Accurately ripped (confidence 3) [39B8C733] (AR v2)
Copy OK

Track 3

Filename L:\EAC\03 - Haze And Aspirations.wav

Peak level 95.8 %
Extraction speed 5.9 X
Track quality 100.0 %
Test CRC EC1148C3
Copy CRC EC1148C3
Accurately ripped (confidence 3) [2FFD0E53] (AR v2)
Copy OK

Track 4

Filename L:\EAC\04 - It's Not The Same.wav

Pre-gap length 0:00:01.34

Peak level 96.2 %
Extraction speed 5.6 X
Track quality 100.0 %
Test CRC 44C77EA0
Copy CRC 44C77EA0
Accurately ripped (confidence 3) [79457226] (AR v2)
Copy OK

Track 5

Filename L:\EAC\05 - Blues For Charlie.wav

Pre-gap length 0:00:01.29

Peak level 97.9 %
Extraction speed 6.6 X
Track quality 100.0 %
Test CRC 3C99760E
Copy CRC 3C99760E
Accurately ripped (confidence 3) [9B016562] (AR v2)
Copy OK

Track 6

Filename L:\EAC\06 - Playing.wav

Peak level 97.4 %
Extraction speed 6.4 X
Track quality 100.0 %
Test CRC 26245E6A
Copy CRC 26245E6A
Accurately ripped (confidence 3) [2817CCF8] (AR v2)
Copy OK

Track 7

Filename L:\EAC\07 - Comme Il Faut.wav

Peak level 98.3 %
Extraction speed 6.6 X
Track quality 100.0 %
Test CRC 9AE23E05
Copy CRC 9AE23E05
Accurately ripped (confidence 3) [C85B6D72] (AR v2)
Copy OK

Track 8

Filename L:\EAC\08 - The Rest.wav

Pre-gap length 0:00:01.07

Peak level 96.9 %
Extraction speed 7.4 X
Track quality 100.0 %
Test CRC 8460345A
Copy CRC 8460345A
Accurately ripped (confidence 3) [F07E1099] (AR v2)
Copy OK


All tracks accurately ripped

No errors occurred

End of status report

–– CUETools DB Plugin V2.1.6

[CTDB TOCID: 6Re8Rm40OBvKFPlPUVFK6Zwm.5c-] found
Submit result: already submitted
Track | CTDB Status
1 | (32/32) Accurately ripped
2 | (32/32) Accurately ripped
3 | (32/32) Accurately ripped
4 | (32/32) Accurately ripped
5 | (32/32) Accurately ripped
6 | (32/32) Accurately ripped
7 | (32/32) Accurately ripped
8 | (32/32) Accurately ripped


==== Log checksum 0427E3BCA2FB9EB78BE733B78A657CA400A9E54B64A4773C18C69C85D8E2CABF ====


Joshua Redman, Ron Miles, Scott Colley & Brian Blade - Still Dreaming (2018) {Nonesuch 7559-79330-8} (Complete Artwork)

Joshua Redman, Ron Miles, Scott Colley & Brian Blade - Still Dreaming (2018) {Nonesuch 7559-79330-8} (Complete Artwork)



===