Tags
Language
Tags
February 2023
Su Mo Tu We Th Fr Sa
29 30 31 1 2 3 4
5 6 7 8 9 10 11
12 13 14 15 16 17 18
19 20 21 22 23 24 25
26 27 28 1 2 3 4

Chor der J.S. Bach-Stiftung, Orchester der J.S. Bach-Stiftung & Rudolf Lutz - Kantaten No. 32 (2020)

Posted By: delpotro
Chor der J.S. Bach-Stiftung, Orchester der J.S. Bach-Stiftung & Rudolf Lutz - Kantaten No. 32 (2020)

Chor der J.S. Bach-Stiftung, Orchester der J.S. Bach-Stiftung & Rudolf Lutz - Kantaten No. 32 (2020)
XLD Rip | FLAC (tracks+log+.cue) - 325 Mb | MP3 CBR 320 kbps - 140 Mb | 01:01:06
Classical, Sacred, Choral | Label: J.S. Bach-Stiftung

Liebster Jesu, mein Verlangen (Dearest Jesus, my desire), BWV 32, is a church cantata by Johann Sebastian Bach. He composed the dialogue cantata (Concerto in Dialogo) in Leipzig for the first Sunday after Epiphany and first performed it on 13 January 1726 as part of his third cantata cycle.
Tracklist:
01. BWV 208 Was mir behagt, ist nur die muntre Jagd: I. Rezitativ (Sopran, Diana)
02. BWV 208 Was mir behagt, ist nur die muntre Jagd: II. Arie (Sopran, Diana)
03. BWV 208 Was mir behagt, ist nur die muntre Jagd: III. Rezitativ (Tenor, Endymion)
04. BWV 208 Was mir behagt, ist nur die muntre Jagd: IV. Arie (Tenor, Endymion)
05. BWV 208 Was mir behagt, ist nur die muntre Jagd: V. Rezitativ (Sopran, Diana; Tenor, Endymion)
06. BWV 208 Was mir behagt, ist nur die muntre Jagd: VI. Rezitativ (Bass, Pan)
07. BWV 208 Was mir behagt, ist nur die muntre Jagd: VII. Arie (Bass, Pan)
08. BWV 208 Was mir behagt, ist nur die muntre Jagd: VIII. Rezitativ (Sopran, Pales)
09. BWV 208 Was mir behagt, ist nur die muntre Jagd: IX. Arie (Sopran, Pales)
10. BWV 208 Was mir behagt, ist nur die muntre Jagd: X. Rezitativ (Sopran, Diana)
11. BWV 208 Was mir behagt, ist nur die muntre Jagd: XI. Arie (Chor)
12. BWV 208 Was mir behagt, ist nur die muntre Jagd: XII. Arie (Sopran, Diana; Tenor, Endymion)
13. BWV 208 Was mir behagt, ist nur die muntre Jagd: XIII. Arie (Sopran, Pales)
14. BWV 208 Was mir behagt, ist nur die muntre Jagd: XIV. Arie (Bass, Pan)
15. BWV 208 Was mir behagt, ist nur die muntre Jagd: XV. Chor
16. BWV 212 Mer hahn en neue Oberkeet: I. ohne Satzbezeichnung
17. BWV 212 Mer hahn en neue Oberkeet: II. Arie (Duett)
18. BWV 212 Mer hahn en neue Oberkeet: III. Rezitativ (Bass, Sopran)
19. BWV 212 Mer hahn en neue Oberkeet: IV. Arie
20. BWV 212 Mer hahn en neue Oberkeet: V. Rezitativ
21. BWV 212 Mer hahn en neue Oberkeet: VI. Arie
22. BWV 212 Mer hahn en neue Oberkeet: VII. Rezitativ
23. BWV 212 Mer hahn en neue Oberkeet: VIII. Arie
24. BWV 212 Mer hahn en neue Oberkeet: IX. Rezitativ (Bass, Sopran)
25. BWV 212 Mer hahn en neue Oberkeet: X. Arie
26. BWV 212 Mer hahn en neue Oberkeet: XI. Rezitativ
27. BWV 212 Mer hahn en neue Oberkeet: XII. Arie
28. BWV 212 Mer hahn en neue Oberkeet: XIII. Rezitativ
29. BWV 212 Mer hahn en neue Oberkeet: XIV. Arie
30. BWV 212 Mer hahn en neue Oberkeet: XV. Rezitativ
31. BWV 212 Mer hahn en neue Oberkeet: XVI. Arie
32. BWV 212 Mer hahn en neue Oberkeet: XVII. Rezitativ
33. BWV 212 Mer hahn en neue Oberkeet: XVIII. Arie
34. BWV 212 Mer hahn en neue Oberkeet: XIX. Rezitativ
35. BWV 212 Mer hahn en neue Oberkeet: XX. Arie
36. BWV 212 Mer hahn en neue Oberkeet: XXI. Rezitativ (Sopran, Bass)
37. BWV 212 Mer hahn en neue Oberkeet: XXII. Arie
38. BWV 212 Mer hahn en neue Oberkeet: XIII. Rezitativ (Sopran, Bass)
39. BWV 212 Mer hahn en neue Oberkeet: XXIV. Chor

X Lossless Decoder version 20191004 (152.0)

XLD extraction logfile from 2020-08-18 19:29:02 -0400

Chor & Orchester der J. S. Bach-Stiftung; Rudolf Lutz / Bach-Kantaten No. 32 (208, 212)

Used drive : Dell DVD+/-RW DW316 (revision A1C1)
Media type : Pressed CD

Ripper mode : XLD Secure Ripper
Disable audio cache : OK for the drive with a cache less than 1375KiB
Make use of C2 pointers : NO
Read offset correction : 6
Max retry count : 100
Gap status : Analyzed, Appended (except HTOA)

TOC of the extracted CD
Track | Start | Length | Start sector | End sector
––––––––––––––––––––––––––––-
1 | 00:00:00 | 01:49:29 | 0 | 8203
2 | 01:49:29 | 01:54:63 | 8204 | 16816
3 | 03:44:17 | 01:15:07 | 16817 | 22448
4 | 04:59:24 | 05:02:21 | 22449 | 45119
5 | 10:01:45 | 02:18:44 | 45120 | 55513
6 | 12:20:14 | 00:34:67 | 55514 | 58130
7 | 12:55:06 | 02:39:13 | 58131 | 70068
8 | 15:34:19 | 00:43:19 | 70069 | 73312
9 | 16:17:38 | 04:17:74 | 73313 | 92661
10 | 20:35:37 | 00:13:37 | 92662 | 93673
11 | 20:48:74 | 02:22:07 | 93674 | 104330
12 | 23:11:06 | 02:02:08 | 104331 | 113488
13 | 25:13:14 | 01:25:10 | 113489 | 119873
14 | 26:38:24 | 02:22:43 | 119874 | 130566
15 | 29:00:67 | 03:16:31 | 130567 | 145297
16 | 32:17:23 | 02:09:12 | 145298 | 154984
17 | 34:26:35 | 00:37:44 | 154985 | 157803
18 | 35:04:04 | 00:56:48 | 157804 | 162051
19 | 36:00:52 | 00:54:26 | 162052 | 166127
20 | 36:55:03 | 00:25:74 | 166128 | 168076
21 | 37:21:02 | 01:09:06 | 168077 | 173257
22 | 38:30:08 | 00:21:51 | 173258 | 174883
23 | 38:51:59 | 01:35:19 | 174884 | 182027
24 | 40:27:03 | 00:31:53 | 182028 | 184405
25 | 40:58:56 | 01:06:06 | 184406 | 189361
26 | 42:04:62 | 00:43:03 | 189362 | 192589
27 | 42:47:65 | 00:54:22 | 192590 | 196661
28 | 43:42:12 | 00:25:71 | 196662 | 198607
29 | 44:08:08 | 05:53:03 | 198608 | 225085
30 | 50:01:11 | 00:26:51 | 225086 | 227086
31 | 50:27:62 | 00:39:50 | 227087 | 230061
32 | 51:07:37 | 00:20:52 | 230062 | 231613
33 | 51:28:14 | 00:30:67 | 231614 | 233930
34 | 51:59:06 | 00:23:43 | 233931 | 235698
35 | 52:22:49 | 05:57:58 | 235699 | 262531
36 | 58:20:32 | 00:21:12 | 262532 | 264118
37 | 58:41:44 | 00:41:71 | 264119 | 267264
38 | 59:23:40 | 00:33:06 | 267265 | 269745
39 | 59:56:46 | 01:10:22 | 269746 | 275017

AccurateRip Summary
Disc not found in AccurateRip DB.

All Tracks
Album gain : 0.12 dB
Peak : 0.871002
Statistics
Read error : 0
Jitter error (maybe fixed) : 0
Retry sector count : 0
Damaged sector count : 0

Track 01
Filename : /Users/rippy/Chor & Orchester der J. S. Bach-Stiftung; Rudolf Lutz - Bach-Kantaten No. 32 (208, 212) (2020) [FLAC]/01. BWV 208 Was mir behagt, ist nur die muntre Jagd- I. Rezitativ (Sopran, Diana).flac
Pre-gap length : 00:02:00

Track gain : 2.26 dB
Peak : 0.707977
CRC32 hash (test run) : 27C283C6
CRC32 hash : 27C283C6
CRC32 hash (skip zero) : E207205E
AccurateRip v1 signature : 557DF473
AccurateRip v2 signature : 9751310E
->Track not present in AccurateRip database.
Statistics
Read error : 0
Jitter error (maybe fixed) : 0
Retry sector count : 0
Damaged sector count : 0

Track 02
Filename : /Users/rippy/Chor & Orchester der J. S. Bach-Stiftung; Rudolf Lutz - Bach-Kantaten No. 32 (208, 212) (2020) [FLAC]/02. BWV 208 Was mir behagt, ist nur die muntre Jagd- II. Arie (Sopran, Diana).flac

Track gain : -1.78 dB
Peak : 0.720978
CRC32 hash (test run) : CDA753C8
CRC32 hash : CDA753C8
CRC32 hash (skip zero) : 42A56502
AccurateRip v1 signature : D8653B6F
AccurateRip v2 signature : 6676DEA6
->Track not present in AccurateRip database.
Statistics
Read error : 0
Jitter error (maybe fixed) : 0
Retry sector count : 0
Damaged sector count : 0

Track 03
Filename : /Users/rippy/Chor & Orchester der J. S. Bach-Stiftung; Rudolf Lutz - Bach-Kantaten No. 32 (208, 212) (2020) [FLAC]/03. BWV 208 Was mir behagt, ist nur die muntre Jagd- III. Rezitativ (Tenor, Endymion).flac

Track gain : 6.60 dB
Peak : 0.454193
CRC32 hash (test run) : 1389F914
CRC32 hash : 1389F914
CRC32 hash (skip zero) : 712533C3
AccurateRip v1 signature : 8034BC25
AccurateRip v2 signature : 4C1352F6
->Track not present in AccurateRip database.
Statistics
Read error : 0
Jitter error (maybe fixed) : 0
Retry sector count : 0
Damaged sector count : 0

Track 04
Filename : /Users/rippy/Chor & Orchester der J. S. Bach-Stiftung; Rudolf Lutz - Bach-Kantaten No. 32 (208, 212) (2020) [FLAC]/04. BWV 208 Was mir behagt, ist nur die muntre Jagd- IV. Arie (Tenor, Endymion).flac

Track gain : 5.64 dB
Peak : 0.464142
CRC32 hash (test run) : 00C4871A
CRC32 hash : 00C4871A
CRC32 hash (skip zero) : 5FCF0E71
AccurateRip v1 signature : 72A59CD5
AccurateRip v2 signature : 26012DED
->Track not present in AccurateRip database.
Statistics
Read error : 0
Jitter error (maybe fixed) : 0
Retry sector count : 0
Damaged sector count : 0

Track 05
Filename : /Users/rippy/Chor & Orchester der J. S. Bach-Stiftung; Rudolf Lutz - Bach-Kantaten No. 32 (208, 212) (2020) [FLAC]/05. BWV 208 Was mir behagt, ist nur die muntre Jagd- V. Rezitativ (Sopran, Diana; Tenor, Endymion).flac

Track gain : 2.49 dB
Peak : 0.708405
CRC32 hash (test run) : 48BBEC9B
CRC32 hash : 48BBEC9B
CRC32 hash (skip zero) : F34EC58D
AccurateRip v1 signature : 84909604
AccurateRip v2 signature : CD207D91
->Track not present in AccurateRip database.
Statistics
Read error : 0
Jitter error (maybe fixed) : 0
Retry sector count : 0
Damaged sector count : 0

Track 06
Filename : /Users/rippy/Chor & Orchester der J. S. Bach-Stiftung; Rudolf Lutz - Bach-Kantaten No. 32 (208, 212) (2020) [FLAC]/06. BWV 208 Was mir behagt, ist nur die muntre Jagd- VI. Rezitativ (Bass, Pan).flac

Track gain : 2.21 dB
Peak : 0.645813
CRC32 hash (test run) : 2CF37FCB
CRC32 hash : 2CF37FCB
CRC32 hash (skip zero) : EC6D3E4B
AccurateRip v1 signature : 12526D71
AccurateRip v2 signature : 2B61BBE4
->Track not present in AccurateRip database.
Statistics
Read error : 0
Jitter error (maybe fixed) : 0
Retry sector count : 0
Damaged sector count : 0

Track 07
Filename : /Users/rippy/Chor & Orchester der J. S. Bach-Stiftung; Rudolf Lutz - Bach-Kantaten No. 32 (208, 212) (2020) [FLAC]/07. BWV 208 Was mir behagt, ist nur die muntre Jagd- VII. Arie (Bass, Pan).flac

Track gain : 0.14 dB
Peak : 0.710693
CRC32 hash (test run) : 10CC2713
CRC32 hash : 10CC2713
CRC32 hash (skip zero) : 0EFE20A4
AccurateRip v1 signature : E2611FAA
AccurateRip v2 signature : 24EA8A46
->Track not present in AccurateRip database.
Statistics
Read error : 0
Jitter error (maybe fixed) : 0
Retry sector count : 0
Damaged sector count : 0

Track 08
Filename : /Users/rippy/Chor & Orchester der J. S. Bach-Stiftung; Rudolf Lutz - Bach-Kantaten No. 32 (208, 212) (2020) [FLAC]/08. BWV 208 Was mir behagt, ist nur die muntre Jagd- VIII. Rezitativ (Sopran, Pales).flac

Track gain : 2.07 dB
Peak : 0.709595
CRC32 hash (test run) : 4066697E
CRC32 hash : 4066697E
CRC32 hash (skip zero) : 0F3E8540
AccurateRip v1 signature : 8EA8C620
AccurateRip v2 signature : C9123F3F
->Track not present in AccurateRip database.
Statistics
Read error : 0
Jitter error (maybe fixed) : 0
Retry sector count : 0
Damaged sector count : 0

Track 09
Filename : /Users/rippy/Chor & Orchester der J. S. Bach-Stiftung; Rudolf Lutz - Bach-Kantaten No. 32 (208, 212) (2020) [FLAC]/09. BWV 208 Was mir behagt, ist nur die muntre Jagd- IX. Arie (Sopran, Pales).flac

Track gain : -0.86 dB
Peak : 0.711487
CRC32 hash (test run) : C0707AB8
CRC32 hash : C0707AB8
CRC32 hash (skip zero) : E40FECB9
AccurateRip v1 signature : 76474AA1
AccurateRip v2 signature : 11D2B28F
->Track not present in AccurateRip database.
Statistics
Read error : 0
Jitter error (maybe fixed) : 0
Retry sector count : 0
Damaged sector count : 0

Track 10
Filename : /Users/rippy/Chor & Orchester der J. S. Bach-Stiftung; Rudolf Lutz - Bach-Kantaten No. 32 (208, 212) (2020) [FLAC]/10. BWV 208 Was mir behagt, ist nur die muntre Jagd- X. Rezitativ (Sopran, Diana).flac

Track gain : 2.46 dB
Peak : 0.618378
CRC32 hash (test run) : F9024E2D
CRC32 hash : F9024E2D
CRC32 hash (skip zero) : AC4D070A
AccurateRip v1 signature : E2D55DD7
AccurateRip v2 signature : 7C1D9403
->Track not present in AccurateRip database.
Statistics
Read error : 0
Jitter error (maybe fixed) : 0
Retry sector count : 0
Damaged sector count : 0

Track 11
Filename : /Users/rippy/Chor & Orchester der J. S. Bach-Stiftung; Rudolf Lutz - Bach-Kantaten No. 32 (208, 212) (2020) [FLAC]/11. BWV 208 Was mir behagt, ist nur die muntre Jagd- XI. Arie (Chor).flac

Track gain : -2.26 dB
Peak : 0.723846
CRC32 hash (test run) : 08881794
CRC32 hash : 08881794
CRC32 hash (skip zero) : DECE052B
AccurateRip v1 signature : B9C050E5
AccurateRip v2 signature : 2C84E0CC
->Track not present in AccurateRip database.
Statistics
Read error : 0
Jitter error (maybe fixed) : 0
Retry sector count : 0
Damaged sector count : 0

Track 12
Filename : /Users/rippy/Chor & Orchester der J. S. Bach-Stiftung; Rudolf Lutz - Bach-Kantaten No. 32 (208, 212) (2020) [FLAC]/12. BWV 208 Was mir behagt, ist nur die muntre Jagd- XII. Arie (Sopran, Diana; Tenor, Endymion).flac

Track gain : 2.52 dB
Peak : 0.707764
CRC32 hash (test run) : 4B0EBC26
CRC32 hash : 4B0EBC26
CRC32 hash (skip zero) : 47092848
AccurateRip v1 signature : DC09C198
AccurateRip v2 signature : 6CBCC9EE
->Track not present in AccurateRip database.
Statistics
Read error : 0
Jitter error (maybe fixed) : 0
Retry sector count : 0
Damaged sector count : 0

Track 13
Filename : /Users/rippy/Chor & Orchester der J. S. Bach-Stiftung; Rudolf Lutz - Bach-Kantaten No. 32 (208, 212) (2020) [FLAC]/13. BWV 208 Was mir behagt, ist nur die muntre Jagd- XIII. Arie (Sopran, Pales).flac

Track gain : 0.97 dB
Peak : 0.709442
CRC32 hash (test run) : CBB147C2
CRC32 hash : CBB147C2
CRC32 hash (skip zero) : FBF7C1F0
AccurateRip v1 signature : E65D93A1
AccurateRip v2 signature : 24897CC8
->Track not present in AccurateRip database.
Statistics
Read error : 0
Jitter error (maybe fixed) : 0
Retry sector count : 0
Damaged sector count : 0

Track 14
Filename : /Users/rippy/Chor & Orchester der J. S. Bach-Stiftung; Rudolf Lutz - Bach-Kantaten No. 32 (208, 212) (2020) [FLAC]/14. BWV 208 Was mir behagt, ist nur die muntre Jagd- XIV. Arie (Bass, Pan).flac

Track gain : 2.44 dB
Peak : 0.689880
CRC32 hash (test run) : CB7F4947
CRC32 hash : CB7F4947
CRC32 hash (skip zero) : AD4277FE
AccurateRip v1 signature : C77AD7BF
AccurateRip v2 signature : 404331F3
->Track not present in AccurateRip database.
Statistics
Read error : 0
Jitter error (maybe fixed) : 0
Retry sector count : 0
Damaged sector count : 0

Track 15
Filename : /Users/rippy/Chor & Orchester der J. S. Bach-Stiftung; Rudolf Lutz - Bach-Kantaten No. 32 (208, 212) (2020) [FLAC]/15. BWV 208 Was mir behagt, ist nur die muntre Jagd- XV. Chor.flac

Track gain : -3.06 dB
Peak : 0.713898
CRC32 hash (test run) : 5B864CEB
CRC32 hash : 5B864CEB
CRC32 hash (skip zero) : C29FB50E
AccurateRip v1 signature : 33485AF9
AccurateRip v2 signature : 7B255E04
->Track not present in AccurateRip database.
Statistics
Read error : 0
Jitter error (maybe fixed) : 0
Retry sector count : 0
Damaged sector count : 0

Track 16
Filename : /Users/rippy/Chor & Orchester der J. S. Bach-Stiftung; Rudolf Lutz - Bach-Kantaten No. 32 (208, 212) (2020) [FLAC]/16. BWV 212 Mer hahn en neue Oberkeet- I. ohne Satzbezeichnung.flac
Pre-gap length : 00:10:24

Track gain : 4.61 dB
Peak : 0.551025
CRC32 hash (test run) : 9AC7AFFE
CRC32 hash : 9AC7AFFE
CRC32 hash (skip zero) : 0DC90D77
AccurateRip v1 signature : DA4DAD8C
AccurateRip v2 signature : 87DE2EBA
->Track not present in AccurateRip database.
Statistics
Read error : 0
Jitter error (maybe fixed) : 0
Retry sector count : 0
Damaged sector count : 0

Track 17
Filename : /Users/rippy/Chor & Orchester der J. S. Bach-Stiftung; Rudolf Lutz - Bach-Kantaten No. 32 (208, 212) (2020) [FLAC]/17. BWV 212 Mer hahn en neue Oberkeet- II. Arie (Duett).flac

Track gain : -1.94 dB
Peak : 0.870972
CRC32 hash (test run) : 97620B51
CRC32 hash : 97620B51
CRC32 hash (skip zero) : 86EDF44A
AccurateRip v1 signature : F0DFA6F2
AccurateRip v2 signature : 78F8B8F4
->Track not present in AccurateRip database.
Statistics
Read error : 0
Jitter error (maybe fixed) : 0
Retry sector count : 0
Damaged sector count : 0

Track 18
Filename : /Users/rippy/Chor & Orchester der J. S. Bach-Stiftung; Rudolf Lutz - Bach-Kantaten No. 32 (208, 212) (2020) [FLAC]/18. BWV 212 Mer hahn en neue Oberkeet- III. Rezitativ (Bass, Sopran).flac

Track gain : 2.45 dB
Peak : 0.829163
CRC32 hash (test run) : 087996D5
CRC32 hash : 087996D5
CRC32 hash (skip zero) : 19AC5088
AccurateRip v1 signature : 16E74402
AccurateRip v2 signature : 12DDE4B5
->Track not present in AccurateRip database.
Statistics
Read error : 0
Jitter error (maybe fixed) : 0
Retry sector count : 0
Damaged sector count : 0

Track 19
Filename : /Users/rippy/Chor & Orchester der J. S. Bach-Stiftung; Rudolf Lutz - Bach-Kantaten No. 32 (208, 212) (2020) [FLAC]/19. BWV 212 Mer hahn en neue Oberkeet- IV. Arie.flac

Track gain : 0.98 dB
Peak : 0.802734
CRC32 hash (test run) : 873EB2DA
CRC32 hash : 873EB2DA
CRC32 hash (skip zero) : 584425F7
AccurateRip v1 signature : B692EEA7
AccurateRip v2 signature : 481B458B
->Track not present in AccurateRip database.
Statistics
Read error : 0
Jitter error (maybe fixed) : 0
Retry sector count : 0
Damaged sector count : 0

Track 20
Filename : /Users/rippy/Chor & Orchester der J. S. Bach-Stiftung; Rudolf Lutz - Bach-Kantaten No. 32 (208, 212) (2020) [FLAC]/20. BWV 212 Mer hahn en neue Oberkeet- V. Rezitativ.flac

Track gain : 3.33 dB
Peak : 0.598328
CRC32 hash (test run) : 788913C9
CRC32 hash : 788913C9
CRC32 hash (skip zero) : 66B36842
AccurateRip v1 signature : D5FEE3BE
AccurateRip v2 signature : AB3FCE09
->Track not present in AccurateRip database.
Statistics
Read error : 0
Jitter error (maybe fixed) : 0
Retry sector count : 0
Damaged sector count : 0

Track 21
Filename : /Users/rippy/Chor & Orchester der J. S. Bach-Stiftung; Rudolf Lutz - Bach-Kantaten No. 32 (208, 212) (2020) [FLAC]/21. BWV 212 Mer hahn en neue Oberkeet- VI. Arie.flac

Track gain : 1.19 dB
Peak : 0.784546
CRC32 hash (test run) : 1B9C2D7F
CRC32 hash : 1B9C2D7F
CRC32 hash (skip zero) : DF10D5FC
AccurateRip v1 signature : 630433D3
AccurateRip v2 signature : ED9EDF01
->Track not present in AccurateRip database.
Statistics
Read error : 0
Jitter error (maybe fixed) : 0
Retry sector count : 0
Damaged sector count : 0

Track 22
Filename : /Users/rippy/Chor & Orchester der J. S. Bach-Stiftung; Rudolf Lutz - Bach-Kantaten No. 32 (208, 212) (2020) [FLAC]/22. BWV 212 Mer hahn en neue Oberkeet- VII. Rezitativ.flac

Track gain : -0.01 dB
Peak : 0.773041
CRC32 hash (test run) : 21A305F6
CRC32 hash : 21A305F6
CRC32 hash (skip zero) : 4E081C91
AccurateRip v1 signature : 79C74805
AccurateRip v2 signature : 136DE6F9
->Track not present in AccurateRip database.
Statistics
Read error : 0
Jitter error (maybe fixed) : 0
Retry sector count : 0
Damaged sector count : 0

Track 23
Filename : /Users/rippy/Chor & Orchester der J. S. Bach-Stiftung; Rudolf Lutz - Bach-Kantaten No. 32 (208, 212) (2020) [FLAC]/23. BWV 212 Mer hahn en neue Oberkeet- VIII. Arie.flac

Track gain : -0.56 dB
Peak : 0.827484
CRC32 hash (test run) : 33786722
CRC32 hash : 33786722
CRC32 hash (skip zero) : DB1B8B16
AccurateRip v1 signature : 6B8292C6
AccurateRip v2 signature : 98629412
->Track not present in AccurateRip database.
Statistics
Read error : 0
Jitter error (maybe fixed) : 0
Retry sector count : 0
Damaged sector count : 0

Track 24
Filename : /Users/rippy/Chor & Orchester der J. S. Bach-Stiftung; Rudolf Lutz - Bach-Kantaten No. 32 (208, 212) (2020) [FLAC]/24. BWV 212 Mer hahn en neue Oberkeet- IX. Rezitativ (Bass, Sopran).flac

Track gain : -0.69 dB
Peak : 0.793610
CRC32 hash (test run) : FAD5B09A
CRC32 hash : FAD5B09A
CRC32 hash (skip zero) : 4B2334B9
AccurateRip v1 signature : 7746FFD0
AccurateRip v2 signature : 9FA6F0FF
->Track not present in AccurateRip database.
Statistics
Read error : 0
Jitter error (maybe fixed) : 0
Retry sector count : 0
Damaged sector count : 0

Track 25
Filename : /Users/rippy/Chor & Orchester der J. S. Bach-Stiftung; Rudolf Lutz - Bach-Kantaten No. 32 (208, 212) (2020) [FLAC]/25. BWV 212 Mer hahn en neue Oberkeet- X. Arie.flac

Track gain : 1.44 dB
Peak : 0.870941
CRC32 hash (test run) : 120904F8
CRC32 hash : 120904F8
CRC32 hash (skip zero) : CCE229B6
AccurateRip v1 signature : 9D6D6408
AccurateRip v2 signature : 5235935B
->Track not present in AccurateRip database.
Statistics
Read error : 0
Jitter error (maybe fixed) : 0
Retry sector count : 0
Damaged sector count : 0

Track 26
Filename : /Users/rippy/Chor & Orchester der J. S. Bach-Stiftung; Rudolf Lutz - Bach-Kantaten No. 32 (208, 212) (2020) [FLAC]/26. BWV 212 Mer hahn en neue Oberkeet- XI. Rezitativ.flac

Track gain : 0.75 dB
Peak : 0.870972
CRC32 hash (test run) : 01A8748C
CRC32 hash : 01A8748C
CRC32 hash (skip zero) : CB34AC49
AccurateRip v1 signature : 07A32AD1
AccurateRip v2 signature : 6D5C99F7
->Track not present in AccurateRip database.
Statistics
Read error : 0
Jitter error (maybe fixed) : 0
Retry sector count : 0
Damaged sector count : 0

Track 27
Filename : /Users/rippy/Chor & Orchester der J. S. Bach-Stiftung; Rudolf Lutz - Bach-Kantaten No. 32 (208, 212) (2020) [FLAC]/27. BWV 212 Mer hahn en neue Oberkeet- XII. Arie.flac

Track gain : -0.87 dB
Peak : 0.870972
CRC32 hash (test run) : BE4CE2AA
CRC32 hash : BE4CE2AA
CRC32 hash (skip zero) : 3834EEF3
AccurateRip v1 signature : 801988EC
AccurateRip v2 signature : 9FAEA575
->Track not present in AccurateRip database.
Statistics
Read error : 0
Jitter error (maybe fixed) : 0
Retry sector count : 0
Damaged sector count : 0

Track 28
Filename : /Users/rippy/Chor & Orchester der J. S. Bach-Stiftung; Rudolf Lutz - Bach-Kantaten No. 32 (208, 212) (2020) [FLAC]/28. BWV 212 Mer hahn en neue Oberkeet- XIII. Rezitativ.flac

Track gain : -2.52 dB
Peak : 0.783173
CRC32 hash (test run) : 928A2033
CRC32 hash : 928A2033
CRC32 hash (skip zero) : 35303C21
AccurateRip v1 signature : 6263F46D
AccurateRip v2 signature : E78479B8
->Track not present in AccurateRip database.
Statistics
Read error : 0
Jitter error (maybe fixed) : 0
Retry sector count : 0
Damaged sector count : 0

Track 29
Filename : /Users/rippy/Chor & Orchester der J. S. Bach-Stiftung; Rudolf Lutz - Bach-Kantaten No. 32 (208, 212) (2020) [FLAC]/29. BWV 212 Mer hahn en neue Oberkeet- XIV. Arie.flac

Track gain : 1.04 dB
Peak : 0.870941
CRC32 hash (test run) : C19D528C
CRC32 hash : C19D528C
CRC32 hash (skip zero) : 7E01D264
AccurateRip v1 signature : 240FC6A2
AccurateRip v2 signature : DC73FE1F
->Track not present in AccurateRip database.
Statistics
Read error : 0
Jitter error (maybe fixed) : 0
Retry sector count : 0
Damaged sector count : 0

Track 30
Filename : /Users/rippy/Chor & Orchester der J. S. Bach-Stiftung; Rudolf Lutz - Bach-Kantaten No. 32 (208, 212) (2020) [FLAC]/30. BWV 212 Mer hahn en neue Oberkeet- XV. Rezitativ.flac

Track gain : 3.25 dB
Peak : 0.597015
CRC32 hash (test run) : 92F04DCB
CRC32 hash : 92F04DCB
CRC32 hash (skip zero) : 0584BCB4
AccurateRip v1 signature : 08BEEB36
AccurateRip v2 signature : C13642B9
->Track not present in AccurateRip database.
Statistics
Read error : 0
Jitter error (maybe fixed) : 0
Retry sector count : 0
Damaged sector count : 0

Track 31
Filename : /Users/rippy/Chor & Orchester der J. S. Bach-Stiftung; Rudolf Lutz - Bach-Kantaten No. 32 (208, 212) (2020) [FLAC]/31. BWV 212 Mer hahn en neue Oberkeet- XVI. Arie.flac

Track gain : -3.36 dB
Peak : 0.870972
CRC32 hash (test run) : 8F76624A
CRC32 hash : 8F76624A
CRC32 hash (skip zero) : 7466E04A
AccurateRip v1 signature : 79C47F31
AccurateRip v2 signature : AB001AC9
->Track not present in AccurateRip database.
Statistics
Read error : 0
Jitter error (maybe fixed) : 0
Retry sector count : 0
Damaged sector count : 0

Track 32
Filename : /Users/rippy/Chor & Orchester der J. S. Bach-Stiftung; Rudolf Lutz - Bach-Kantaten No. 32 (208, 212) (2020) [FLAC]/32. BWV 212 Mer hahn en neue Oberkeet- XVII. Rezitativ.flac

Track gain : -2.76 dB
Peak : 0.870972
CRC32 hash (test run) : 81B4DA2B
CRC32 hash : 81B4DA2B
CRC32 hash (skip zero) : 1D5DAB35
AccurateRip v1 signature : A3147AB5
AccurateRip v2 signature : B5F4C133
->Track not present in AccurateRip database.
Statistics
Read error : 0
Jitter error (maybe fixed) : 0
Retry sector count : 0
Damaged sector count : 0

Track 33
Filename : /Users/rippy/Chor & Orchester der J. S. Bach-Stiftung; Rudolf Lutz - Bach-Kantaten No. 32 (208, 212) (2020) [FLAC]/33. BWV 212 Mer hahn en neue Oberkeet- XVIII. Arie.flac

Track gain : -3.82 dB
Peak : 0.870972
CRC32 hash (test run) : 6A23C2F7
CRC32 hash : 6A23C2F7
CRC32 hash (skip zero) : 8D0AEA55
AccurateRip v1 signature : 6206D7A6
AccurateRip v2 signature : 9F134C9C
->Track not present in AccurateRip database.
Statistics
Read error : 0
Jitter error (maybe fixed) : 0
Retry sector count : 0
Damaged sector count : 0

Track 34
Filename : /Users/rippy/Chor & Orchester der J. S. Bach-Stiftung; Rudolf Lutz - Bach-Kantaten No. 32 (208, 212) (2020) [FLAC]/34. BWV 212 Mer hahn en neue Oberkeet- XIX. Rezitativ.flac

Track gain : 4.35 dB
Peak : 0.627350
CRC32 hash (test run) : 3C107847
CRC32 hash : 3C107847
CRC32 hash (skip zero) : F2A3A20C
AccurateRip v1 signature : 39C163AF
AccurateRip v2 signature : 5D3487FB
->Track not present in AccurateRip database.
Statistics
Read error : 0
Jitter error (maybe fixed) : 0
Retry sector count : 0
Damaged sector count : 0

Track 35
Filename : /Users/rippy/Chor & Orchester der J. S. Bach-Stiftung; Rudolf Lutz - Bach-Kantaten No. 32 (208, 212) (2020) [FLAC]/35. BWV 212 Mer hahn en neue Oberkeet- XX. Arie.flac

Track gain : 2.40 dB
Peak : 0.804474
CRC32 hash (test run) : EFF55AE2
CRC32 hash : EFF55AE2
CRC32 hash (skip zero) : 1D1E1ED7
AccurateRip v1 signature : E2CAD8FF
AccurateRip v2 signature : 1BA55713
->Track not present in AccurateRip database.
Statistics
Read error : 0
Jitter error (maybe fixed) : 0
Retry sector count : 0
Damaged sector count : 0

Track 36
Filename : /Users/rippy/Chor & Orchester der J. S. Bach-Stiftung; Rudolf Lutz - Bach-Kantaten No. 32 (208, 212) (2020) [FLAC]/36. BWV 212 Mer hahn en neue Oberkeet- XXI. Rezitativ (Sopran, Bass).flac

Track gain : 1.50 dB
Peak : 0.738129
CRC32 hash (test run) : BB9AE079
CRC32 hash : BB9AE079
CRC32 hash (skip zero) : 790E7CFC
AccurateRip v1 signature : B7E41AA6
AccurateRip v2 signature : F972A196
->Track not present in AccurateRip database.
Statistics
Read error : 0
Jitter error (maybe fixed) : 0
Retry sector count : 0
Damaged sector count : 0

Track 37
Filename : /Users/rippy/Chor & Orchester der J. S. Bach-Stiftung; Rudolf Lutz - Bach-Kantaten No. 32 (208, 212) (2020) [FLAC]/37. BWV 212 Mer hahn en neue Oberkeet- XXII. Arie.flac

Track gain : -2.38 dB
Peak : 0.864258
CRC32 hash (test run) : D7E984DE
CRC32 hash : D7E984DE
CRC32 hash (skip zero) : 3DBE4FE1
AccurateRip v1 signature : E623D93B
AccurateRip v2 signature : EB2B2006
->Track not present in AccurateRip database.
Statistics
Read error : 0
Jitter error (maybe fixed) : 0
Retry sector count : 0
Damaged sector count : 0

Track 38
Filename : /Users/rippy/Chor & Orchester der J. S. Bach-Stiftung; Rudolf Lutz - Bach-Kantaten No. 32 (208, 212) (2020) [FLAC]/38. BWV 212 Mer hahn en neue Oberkeet- XIII. Rezitativ (Sopran, Bass).flac

Track gain : 1.31 dB
Peak : 0.806366
CRC32 hash (test run) : 034EF313
CRC32 hash : 034EF313
CRC32 hash (skip zero) : AD0F3CBE
AccurateRip v1 signature : 7EA98609
AccurateRip v2 signature : 482028D7
->Track not present in AccurateRip database.
Statistics
Read error : 0
Jitter error (maybe fixed) : 0
Retry sector count : 0
Damaged sector count : 0

Track 39
Filename : /Users/rippy/Chor & Orchester der J. S. Bach-Stiftung; Rudolf Lutz - Bach-Kantaten No. 32 (208, 212) (2020) [FLAC]/39. BWV 212 Mer hahn en neue Oberkeet- XXIV. Chor.flac

Track gain : -4.86 dB
Peak : 0.871002
CRC32 hash (test run) : E57711B4
CRC32 hash : E57711B4
CRC32 hash (skip zero) : C82ACF53
AccurateRip v1 signature : 3AE4146D
AccurateRip v2 signature : D59BD9E6
->Track not present in AccurateRip database.
Statistics
Read error : 0
Jitter error (maybe fixed) : 0
Retry sector count : 0
Damaged sector count : 0

No errors occurred

End of status report

––-BEGIN XLD SIGNATURE––-
hU6BIpwQjQCigTQBftilomlCn_0hvJoNTrBqSlH.ZkbRU2ErpcgI2ggaHwobASnopr9TC3IXFnuCAWtVUfLoFkjsRH0rWQAMHBah_gW
––-END XLD SIGNATURE––-

Thanks to the Original ripper !