Tags
Language
Tags

Julien Clerc - Duos (2019)

Posted By: delpotro
Julien Clerc - Duos (2019)

Julien Clerc - Duos (2019)
EAC Rip | FLAC (tracks+log+.cue) - 295 Mb | MP3 CBR 320 kbps - 116 Mb | Covers included | 00:41:19
Chanson | Label: Parlophone Records, Warner Music

Julien Clerc réinterprète ses classiques avec des artistesphares de la chanson française :Christophe Maé, Francis Cabrel, Calogero, Vianney, Zaz,Philippe Katherine, Maxime Le Forestier, Soprano, FlorentPagny, Sandrine Kiberlain, Carla Bruni, Vanille, …Un grand casting pour de grandes chansons!
Tracklist:
1. Ma préférence (en duo avec Calogero) (03:32)
2. Fais-moi une place (en duo avec Vanille) (03:30)
3. Ce n'est rien (en duo avec Zaz)] (03:43)
4. Femmes je vous aime (en duo avec Vianney) (04:12)
5. Mélissa (en duo avec Philippe Katerine) (03:24)
6. Laissons entrer le soleil (en duo avec Soprano) (02:47)
7. Double enfance (en duo avec Maxime Le Forestier) (02:57)
8. Ballade pour un fou (en duo avec Florent Pagny) (04:17)
9. Utile (en duo avec Christophe Maé) (03:01)
10. Danse s'y (en duo avec Sandrine Kiberlain) (03:25)
11. Souffrir par toi n'est pas souffrir (en duo avec Francis Cabrel) (04:04)
12. Jouez violons, sonnez crécelles (en duo avec Carla Bruni) (02:21)

Exact Audio Copy V1.3 from 2. September 2016

EAC extraction logfile from 10. December 2019, 9:28

Julien Clerc / Duos

Used drive : PLEXTOR PX-891SAF Adapter: 1 ID: 0

Read mode : Secure
Utilize accurate stream : Yes
Defeat audio cache : Yes
Make use of C2 pointers : No

Read offset correction : 6
Overread into Lead-In and Lead-Out : No
Fill up missing offset samples with silence : Yes
Delete leading and trailing silent blocks : No
Null samples used in CRC calculations : Yes
Used interface : Native Win32 interface for Win NT & 2000
Gap handling : Appended to previous track

Used output format : User Defined Encoder
Selected bitrate : 1024 kBit/s
Quality : High
Add ID3 tag : No
Command line compressor : C:\Program Files (x86)\Exact Audio Copy\Flac\flac.exe
Additional command line options : -8 -V -T "ARTIST=%artist%" -T "TITLE=%title%" -T "ALBUM=%albumtitle%" -T "DATE=%year%" -T "TRACKNUMBER=%tracknr%" -T "GENRE=%genre%" -T "PERFORMER=%albuminterpret%" -T "COMPOSER=%composer%" %haslyrics%–tag-from-file=LYRICS="%lyricsfile%"%haslyrics% -T "ALBUMARTIST=%albumartist%" -T "DISCNUMBER=%cdnumber%" -T "TOTALDISCS=%totalcds%" -T "TOTALTRACKS=%numtracks%" -T "COMMENT=%comment%" %source% -o %dest%


TOC of the extracted CD

Track | Start | Length | Start sector | End sector
––––––––––––––––––––––––––––-
1 | 0:00.00 | 3:32.54 | 0 | 15953
2 | 3:32.54 | 3:30.55 | 15954 | 31758
3 | 7:03.34 | 3:43.04 | 31759 | 48487
4 | 10:46.38 | 4:12.37 | 48488 | 67424
5 | 14:59.00 | 3:23.64 | 67425 | 82713
6 | 18:22.64 | 2:47.14 | 82714 | 95252
7 | 21:10.03 | 2:57.64 | 95253 | 108591
8 | 24:07.67 | 4:17.34 | 108592 | 127900
9 | 28:25.26 | 3:01.73 | 127901 | 141548
10 | 31:27.24 | 3:25.67 | 141549 | 156990
11 | 34:53.16 | 4:04.34 | 156991 | 175324
12 | 38:57.50 | 2:22.07 | 175325 | 185981


Track 1

Filename D:\#cdr\#wav+flac\Julien Clerc - Duos\01. Julien Clerc & Calogero - Ma Préférence.wav

Pre-gap length 0:00:02.00

Peak level 99.6 %
Extraction speed 5.0 X
Track quality 100.0 %
Test CRC 835CC6A2
Copy CRC 835CC6A2
Track not present in AccurateRip database
Copy OK

Track 2

Filename D:\#cdr\#wav+flac\Julien Clerc - Duos\02. Julien Clerc & Vanille - Fais-Moi Une Place.wav

Peak level 100.0 %
Extraction speed 5.5 X
Track quality 100.0 %
Test CRC 8BD95029
Copy CRC 8BD95029
Track not present in AccurateRip database
Copy OK

Track 3

Filename D:\#cdr\#wav+flac\Julien Clerc - Duos\03. Julien Clerc & Zaz - Ce N'est Rien.wav

Peak level 100.0 %
Extraction speed 6.0 X
Track quality 100.0 %
Test CRC F63949FE
Copy CRC F63949FE
Track not present in AccurateRip database
Copy OK

Track 4

Filename D:\#cdr\#wav+flac\Julien Clerc - Duos\04. Julien Clerc & Vianney - Femmes Je Vous Aime.wav

Peak level 100.0 %
Extraction speed 6.6 X
Track quality 100.0 %
Test CRC FE8E40D4
Copy CRC FE8E40D4
Track not present in AccurateRip database
Copy OK

Track 5

Filename D:\#cdr\#wav+flac\Julien Clerc - Duos\05. Julien Clerc & Philippe Katerine - Mélissa.wav

Peak level 100.0 %
Extraction speed 5.5 X
Track quality 99.9 %
Test CRC 3673D92D
Copy CRC 3673D92D
Track not present in AccurateRip database
Copy OK

Track 6

Filename D:\#cdr\#wav+flac\Julien Clerc - Duos\06. Julien Clerc & Soprano - Laissons Entrer Le Soleil.wav

Peak level 100.0 %
Extraction speed 6.8 X
Track quality 100.0 %
Test CRC 6B2E80F1
Copy CRC 6B2E80F1
Track not present in AccurateRip database
Copy OK

Track 7

Filename D:\#cdr\#wav+flac\Julien Clerc - Duos\07. Julien Clerc & Maxime Le Forestier - Double Enfance.wav

Peak level 100.0 %
Extraction speed 7.2 X
Track quality 100.0 %
Test CRC DB31461B
Copy CRC DB31461B
Track not present in AccurateRip database
Copy OK

Track 8

Filename D:\#cdr\#wav+flac\Julien Clerc - Duos\08. Julien Clerc & Florent Pagny - Ballade Pour Un Fou (Loco, Loco).wav

Peak level 100.0 %
Extraction speed 7.8 X
Track quality 100.0 %
Test CRC 61088BA2
Copy CRC 61088BA2
Track not present in AccurateRip database
Copy OK

Track 9

Filename D:\#cdr\#wav+flac\Julien Clerc - Duos\09. Julien Clerc & Christophe Maé - Utile.wav

Peak level 99.1 %
Extraction speed 7.7 X
Track quality 100.0 %
Test CRC 6D46318E
Copy CRC 6D46318E
Track not present in AccurateRip database
Copy OK

Track 10

Filename D:\#cdr\#wav+flac\Julien Clerc - Duos\10. Julien Clerc & Sandrine Kiberlain - Danse S'y.wav

Peak level 99.9 %
Extraction speed 8.2 X
Track quality 100.0 %
Test CRC 0B19F598
Copy CRC 0B19F598
Track not present in AccurateRip database
Copy OK

Track 11

Filename D:\#cdr\#wav+flac\Julien Clerc - Duos\11. Julien Clerc & Francis Cabrel - Souffrir Par Toi N'est Pas Souffrir.wav

Peak level 100.0 %
Extraction speed 8.7 X
Track quality 100.0 %
Test CRC 61A9FC06
Copy CRC 61A9FC06
Track not present in AccurateRip database
Copy OK

Track 12

Filename D:\#cdr\#wav+flac\Julien Clerc - Duos\12. Julien Clerc & Carla Bruni - Jouez Violons, Sonnez Crécelles.wav

Peak level 100.0 %
Extraction speed 5.9 X
Track quality 99.9 %
Test CRC E4730CDF
Copy CRC E4730CDF
Track not present in AccurateRip database
Copy OK


None of the tracks are present in the AccurateRip database

No errors occurred

End of status report

–– CUETools DB Plugin V2.1.6

[CTDB TOCID: ERpAKrIHEwAP_uTzeatJqiUOxzA-] disk not present in database
Submit result: ERpAKrIHEwAP_uTzeatJqiUOxzA- has been uploaded


==== Log checksum 2158ADE1F547E49DEBD309351E078202CD72AEFD014ED8174F4C13DDD03B3863 ====

––––––––––––––––––––––––––––––

Exact Audio Copy V1.3 from 2. September 2016

EAC extraction logfile from 10. December 2019, 9:28

Julien Clerc / Duos

Used drive : PLEXTOR PX-891SAF Adapter: 1 ID: 0

Read mode : Secure
Utilize accurate stream : Yes
Defeat audio cache : Yes
Make use of C2 pointers : No

Read offset correction : 6
Overread into Lead-In and Lead-Out : No
Fill up missing offset samples with silence : Yes
Delete leading and trailing silent blocks : No
Null samples used in CRC calculations : Yes
Used interface : Native Win32 interface for Win NT & 2000
Gap handling : Appended to previous track

Used output format : User Defined Encoder
Selected bitrate : 1024 kBit/s
Quality : High
Add ID3 tag : No
Command line compressor : C:\Program Files (x86)\Exact Audio Copy\Flac\flac.exe
Additional command line options : -8 -V -T "ARTIST=%artist%" -T "TITLE=%title%" -T "ALBUM=%albumtitle%" -T "DATE=%year%" -T "TRACKNUMBER=%tracknr%" -T "GENRE=%genre%" -T "PERFORMER=%albuminterpret%" -T "COMPOSER=%composer%" %haslyrics%–tag-from-file=LYRICS="%lyricsfile%"%haslyrics% -T "ALBUMARTIST=%albumartist%" -T "DISCNUMBER=%cdnumber%" -T "TOTALDISCS=%totalcds%" -T "TOTALTRACKS=%numtracks%" -T "COMMENT=%comment%" %source% -o %dest%


TOC of the extracted CD

Track | Start | Length | Start sector | End sector
––––––––––––––––––––––––––––-
1 | 0:00.00 | 3:32.54 | 0 | 15953
2 | 3:32.54 | 3:30.55 | 15954 | 31758
3 | 7:03.34 | 3:43.04 | 31759 | 48487
4 | 10:46.38 | 4:12.37 | 48488 | 67424
5 | 14:59.00 | 3:23.64 | 67425 | 82713
6 | 18:22.64 | 2:47.14 | 82714 | 95252
7 | 21:10.03 | 2:57.64 | 95253 | 108591
8 | 24:07.67 | 4:17.34 | 108592 | 127900
9 | 28:25.26 | 3:01.73 | 127901 | 141548
10 | 31:27.24 | 3:25.67 | 141549 | 156990
11 | 34:53.16 | 4:04.34 | 156991 | 175324
12 | 38:57.50 | 2:22.07 | 175325 | 185981


Track 1

Filename D:\#cdr\#wav+flac\Julien Clerc - Duos\01. Julien Clerc & Calogero - Ma Préférence.wav

Pre-gap length 0:00:02.00

Peak level 99.6 %
Extraction speed 5.0 X
Track quality 100.0 %
Test CRC 835CC6A2
Copy CRC 835CC6A2
Track not present in AccurateRip database
Copy OK

Track 2

Filename D:\#cdr\#wav+flac\Julien Clerc - Duos\02. Julien Clerc & Vanille - Fais-Moi Une Place.wav

Peak level 100.0 %
Extraction speed 5.5 X
Track quality 100.0 %
Test CRC 8BD95029
Copy CRC 8BD95029
Track not present in AccurateRip database
Copy OK

Track 3

Filename D:\#cdr\#wav+flac\Julien Clerc - Duos\03. Julien Clerc & Zaz - Ce N'est Rien.wav

Peak level 100.0 %
Extraction speed 6.0 X
Track quality 100.0 %
Test CRC F63949FE
Copy CRC F63949FE
Track not present in AccurateRip database
Copy OK

Track 4

Filename D:\#cdr\#wav+flac\Julien Clerc - Duos\04. Julien Clerc & Vianney - Femmes Je Vous Aime.wav

Peak level 100.0 %
Extraction speed 6.6 X
Track quality 100.0 %
Test CRC FE8E40D4
Copy CRC FE8E40D4
Track not present in AccurateRip database
Copy OK

Track 5

Filename D:\#cdr\#wav+flac\Julien Clerc - Duos\05. Julien Clerc & Philippe Katerine - Mélissa.wav

Peak level 100.0 %
Extraction speed 5.5 X
Track quality 99.9 %
Test CRC 3673D92D
Copy CRC 3673D92D
Track not present in AccurateRip database
Copy OK

Track 6

Filename D:\#cdr\#wav+flac\Julien Clerc - Duos\06. Julien Clerc & Soprano - Laissons Entrer Le Soleil.wav

Peak level 100.0 %
Extraction speed 6.8 X
Track quality 100.0 %
Test CRC 6B2E80F1
Copy CRC 6B2E80F1
Track not present in AccurateRip database
Copy OK

Track 7

Filename D:\#cdr\#wav+flac\Julien Clerc - Duos\07. Julien Clerc & Maxime Le Forestier - Double Enfance.wav

Peak level 100.0 %
Extraction speed 7.2 X
Track quality 100.0 %
Test CRC DB31461B
Copy CRC DB31461B
Track not present in AccurateRip database
Copy OK

Track 8

Filename D:\#cdr\#wav+flac\Julien Clerc - Duos\08. Julien Clerc & Florent Pagny - Ballade Pour Un Fou (Loco, Loco).wav

Peak level 100.0 %
Extraction speed 7.8 X
Track quality 100.0 %
Test CRC 61088BA2
Copy CRC 61088BA2
Track not present in AccurateRip database
Copy OK

Track 9

Filename D:\#cdr\#wav+flac\Julien Clerc - Duos\09. Julien Clerc & Christophe Maé - Utile.wav

Peak level 99.1 %
Extraction speed 7.7 X
Track quality 100.0 %
Test CRC 6D46318E
Copy CRC 6D46318E
Track not present in AccurateRip database
Copy OK

Track 10

Filename D:\#cdr\#wav+flac\Julien Clerc - Duos\10. Julien Clerc & Sandrine Kiberlain - Danse S'y.wav

Peak level 99.9 %
Extraction speed 8.2 X
Track quality 100.0 %
Test CRC 0B19F598
Copy CRC 0B19F598
Track not present in AccurateRip database
Copy OK

Track 11

Filename D:\#cdr\#wav+flac\Julien Clerc - Duos\11. Julien Clerc & Francis Cabrel - Souffrir Par Toi N'est Pas Souffrir.wav

Peak level 100.0 %
Extraction speed 8.7 X
Track quality 100.0 %
Test CRC 61A9FC06
Copy CRC 61A9FC06
Track not present in AccurateRip database
Copy OK

Track 12

Filename D:\#cdr\#wav+flac\Julien Clerc - Duos\12. Julien Clerc & Carla Bruni - Jouez Violons, Sonnez Crécelles.wav

Peak level 100.0 %
Extraction speed 5.9 X
Track quality 99.9 %
Test CRC E4730CDF
Copy CRC E4730CDF
Track not present in AccurateRip database
Copy OK


None of the tracks are present in the AccurateRip database

No errors occurred

End of status report

–– CUETools DB Plugin V2.1.6

[CTDB TOCID: ERpAKrIHEwAP_uTzeatJqiUOxzA-] disk not present in database
Submit result: ERpAKrIHEwAP_uTzeatJqiUOxzA- has been uploaded


==== Log checksum 2158ADE1F547E49DEBD309351E078202CD72AEFD014ED8174F4C13DDD03B3863 ====

Thanks to the Original ripper !