Subcategories
Tags
Language
Tags

Julius Katchen - Brahms: Works for Solo Piano (1997) (6CD Box Set)

Posted By: shamanicus
Julius Katchen - Brahms: Works for Solo Piano (1997) (6CD Box Set)

Julius Katchen - Brahms: Works for Solo Piano (1997) (6CD Box Set)
EAC Rip | FLAC (tracks+.cue, log) | Artwork, d.booklet | 1.56 Gb | MP3 CBR 320kbps | RAR | 887 mb
Classical, Romantic | Label: London Classics / 455 247-2 / CD

Julius Katchen performs the composer's work whom he most favored; again, highly-esteemed recordings among classical cognoscenti.

Katchen's reputation as a Brahms interpreter rests largely on these recordings, made between 1962 and 1965. This set overall is very good, with the weakest link being the performance of the Third Piano Sonata. The strongest links, and the truest confirmations of Katchen's peerless stature in Brahms, are the Eight Pieces Op. 76, the Rhapsodies Op. 79, and the Opp. 116-119 character pieces. All of these late-period works receive truly revelatory performances. The sound quality is very slightly muffled throughout, and a few of the tracks - including some pieces in the Op. 116 set - are in very muffled monophonic sound. The booklet notes are disappointing - for a release of this importance, the booklet should have been twice as thick.

Tracklist:

CD1 (7 / 1:07:12)

01. Variations on a Theme by Paganini, Op.35 - Book 1
02. Variations on a Theme by Paganini, Op.35 - Book 2
03. Variations and Fugue on a Theme by Handel, Op.24
04. Four Ballades, Op.10 - I. Andante in D minor
05. Four Ballades, Op.10 - II. Andante in D major
06. Four Ballades, Op.10 - III. Intermezzo: Allegro
07. Four Ballades, Op.10 - IV. Andante con moto


CD2 (6 / 1:08:21)

01. Variations on a Theme by Schumann in F sharp minor, Op.9
02. Variations on an Original Theme in D, Op.21 No.1
03. Variations on a Hungarian Song in D, Op.21 No.2
04. 16 Waltzes, Op.39 Nos 1-8
05. 16 Waltzes, Op.39 Nos 9-16
06. Scherzo in E flat minor, Op.4


CD3 (10 / 1:07:30)

01. Sonata No.1 in C major, Op.1 - I. Allegro
02. Sonata No.1 in C major, Op.1 - II. Andante
03. Sonata No.1 in C major, Op.1 - III. Scherzo: Allegro moto e con fuoco
04. Sonata No.1 in C major, Op.1 - IV. Finale: Allegro con fuoco
05. Sonata No.2 in F sharp minor, Op.2 - I. Allegro non troppo ma energico
06. Sonata No.2 in F sharp minor, Op.2 - II. Andante con espressione
07. Sonata No.2 in F sharp minor, Op.2 - III. Scherzo: Allegro
08. Sonata No.2 in F sharp minor, Op.2 - IV. Finale: Introduzione (sostenuto)
09. Two Rhapsodies - No.1 in B minor Op.79 - I. Agitato
10. Two Rhapsodies - No.2 in G minor Op.79 - II. Molto passionato, ma non troppo allegro


CD4 (12 / 1:01:24)

01. Sonata No. 3 in F minor, Op. 5 - I. Allegro maestoso
02. Sonata No. 3 in F minor, Op. 5 - II. Andante espressivo - Andante molto
03. Sonata No. 3 in F minor, Op. 5 - III. Scherzo: Allegro energico
04. Sonata No. 3 in F minor, Op. 5 - IV. Intermezzo (Rückblick): Andante molto
05. Sonata No. 3 in F minor, Op. 5 - V. Finale: Allegro moderato ma rubato
06. Seven Fantasias, Op.116 - I. Capriccio in D minor: Presto energico
07. Seven Fantasias, Op.116 - II. Intermezzo in A minor: Andante
08. Seven Fantasias, Op.116 - III. Capriccio in G minor: Allegro passionato
09. Seven Fantasias, Op.116 - IV. Intermezzo in E major: Adagio
10. Seven Fantasias, Op.116 - V. Intermezzo in E major: Andante con grazia ed intimissimo sentimento
11. Seven Fantasias, Op.116 - VI. Intermezzo in E major: Andantino teneramente
12. Seven Fantasias, Op.116 - VII. Capriccio in D minor: Allegro agitato


CD5 (18 / 1:01:31)

01. 8 Pieces, Op.76 - I. Capriccio: Un poco agitato
02. 8 Pieces, Op.76 - II. Capriccio: Allegretto non troppo
03. 8 Pieces, Op.76 - III. Intermezzo: Grazioso
04. 8 Pieces, Op.76 - IV. Intermezzo: Allegretto grazioso
05. 8 Pieces, Op.76 - V. Capriccio: Agitato, ma non troppo presto
06. 8 Pieces, Op.76 - VI. Intermezzo: Andante con moto
07. 8 Pieces, Op.76 - VII. Intermezzo: Moderato semplice
08. 8 Pieces, Op.76 - VIII. Capriccio: Grazioso ed un poco vivace
09. 6 Pieces, Op.118 - I. Intermezzo: Allegro non assai, ma molto appassionato
10. 6 Pieces, Op.118 - II. Intermezzo: Andante teneramente
11. 6 Pieces, Op.118 - III. Ballade: Allegro energico
12. 6 Pieces, Op.118 - IV. Intermezzo: Allegretto un poco agitato
13. 6 Pieces, Op.118 - V. Romanze: Andante
14. 6 Pieces, Op.118 - VI. Intermezzo: Andante, largo e mesto
15. 4 Pieces, Op.119 - I. Intermezzo: Adagio
16. 4 Pieces, Op.119 - II. Intermezzo: Andantino un poco agitato
17. 4 Pieces, Op.119 - III. Intermezzo: Grazioso e giocoso
18. 4 Pieces, Op.119 - IV. Rhapsody: Allegro risoluto


CD6 (24 / 1:01:49)

01. Tres intermezzi, Op.117 - I. Andante Moderato
02. Tres intermezzi, Op.117 - II. Andante non troppo e con molto espressione
03. Tres intermezzi, Op.117 - III. Andante con moto
04. Hungarian Dances for Solo Piano No.1 in G minor
05. Hungarian Dances for Solo Piano No.2 in D minor
06. Hungarian Dances for Solo Piano No.3 in F major
07. Hungarian Dances for Solo Piano No.4 in F sharp minor
08. Hungarian Dances for Solo Piano No.5 in F sharp minor
09. Hungarian Dances for Solo Piano No.6 in D flat major
10. Hungarian Dances for Solo Piano No.7 in F major
11. Hungarian Dances for Solo Piano No.8 in A minor
12. Hungarian Dances for Solo Piano No.9 in E minor
13. Hungarian Dances for Solo Piano No.10 in E major
14. Hungarian Dances for Piano Duet No.1 in D minor
15. Hungarian Dances for Piano Duet No.2 in D minor
16. Hungarian Dances for Piano Duet No.3 in D major
17. Hungarian Dances for Piano Duet No.4 in D minor
18. Hungarian Dances for Piano Duet No.5 in B flat major
19. Hungarian Dances for Piano Duet No.6 in F minor
20. Hungarian Dances for Piano Duet No.7 in F sharp minor
21. Hungarian Dances for Piano Duet No.8 in D major
22. Hungarian Dances for Piano Duet No.9 in B minor
23. Hungarian Dances for Piano Duet No.10 in E minor
24. Hungarian Dances for Piano Duet No.11 in E minor

Julius Katchen - Brahms: Works for Solo Piano (1997) (6CD Box Set)


Exact Audio Copy V1.0 beta 1 from 15. November 2010

EAC extraction logfile from 22. March 2011, 20:18

Johannes Brahms / Works for Solo Piano

Used drive : TSSTcorpCDDVDW TS-L633C Adapter: 2 ID: 0

Read mode : Secure
Utilize accurate stream : Yes
Defeat audio cache : Yes
Make use of C2 pointers : No

Read offset correction : 6
Overread into Lead-In and Lead-Out : No
Fill up missing offset samples with silence : Yes
Delete leading and trailing silent blocks : No
Null samples used in CRC calculations : Yes
Used interface : Native Win32 interface for Win NT & 2000
Gap handling : Appended to previous track

Used output format : User Defined Encoder
Selected bitrate : 128 kBit/s
Quality : High
Add ID3 tag : No
Command line compressor : C:\Program Files (x86)\Exact Audio Copy\Flac\flac.exe
Additional command line options : -V -8 -T "artist=%a" -T "title=%t" -T "album=%g" -T "date=%y" -T "tracknumber=%n" -T "genre=%m" %s


TOC of the extracted CD

Track | Start | Length | Start sector | End sector
––––––––––––––––––––––––––––-
1 | 0:00.32 | 11:25.70 | 32 | 51476
2 | 11:26.27 | 9:00.10 | 51477 | 91986
3 | 20:26.37 | 26:34.33 | 91987 | 211569
4 | 47:00.70 | 4:57.32 | 211570 | 233876
5 | 51:58.27 | 5:49.10 | 233877 | 260061
6 | 57:47.37 | 3:49.20 | 260062 | 277256
7 | 61:36.57 | 5:35.23 | 277257 | 302404


Track 1

Filename G:\EACRIPS\Johannes Brahms - 1997 - Works for Solo Piano\01. Variations on a Theme by Paganini, Op.35 - Book 1.wav

Pre-gap length 0:00:02.42

Peak level 63.4 %
Extraction speed 1.4 X
Track quality 100.0 %
Test CRC BFEBB2DA
Copy CRC BFEBB2DA
Accurately ripped (confidence 12) [5C185C17]
Copy OK

Track 2

Filename G:\EACRIPS\Johannes Brahms - 1997 - Works for Solo Piano\02. Variations on a Theme by Paganini, Op.35 - Book 2.wav

Peak level 69.5 %
Extraction speed 1.7 X
Track quality 100.0 %
Test CRC 2790291A
Copy CRC 2790291A
Accurately ripped (confidence 2) [40B4D3F6]
Copy OK

Track 3

Filename G:\EACRIPS\Johannes Brahms - 1997 - Works for Solo Piano\03. Variations and Fugue on a Theme by Handel, Op.24.wav

Pre-gap length 0:00:06.26

Peak level 73.6 %
Extraction speed 2.2 X
Track quality 100.0 %
Test CRC 416B1252
Copy CRC 416B1252
Accurately ripped (confidence 2) [39A42437]
Copy OK

Track 4

Filename G:\EACRIPS\Johannes Brahms - 1997 - Works for Solo Piano\04. Four Ballades, Op.10 - I. Andante in D Minor.wav

Pre-gap length 0:00:07.04

Peak level 70.7 %
Extraction speed 2.3 X
Track quality 100.0 %
Test CRC CCE756DB
Copy CRC CCE756DB
Accurately ripped (confidence 2) [93C2F85C]
Copy OK

Track 5

Filename G:\EACRIPS\Johannes Brahms - 1997 - Works for Solo Piano\05. Four Ballades, Op.10 - II. Andante in D Major.wav

Pre-gap length 0:00:02.20

Peak level 70.4 %
Extraction speed 2.4 X
Track quality 100.0 %
Test CRC 34D8F3ED
Copy CRC 34D8F3ED
Accurately ripped (confidence 2) [B29C6E20]
Copy OK

Track 6

Filename G:\EACRIPS\Johannes Brahms - 1997 - Works for Solo Piano\06. Four Ballades, Op.10 - III. Intermezzo- Allegro.wav

Pre-gap length 0:00:01.96

Peak level 57.5 %
Extraction speed 2.3 X
Track quality 100.0 %
Test CRC BFE5DAAF
Copy CRC BFE5DAAF
Accurately ripped (confidence 2) [88B31636]
Copy OK

Track 7

Filename G:\EACRIPS\Johannes Brahms - 1997 - Works for Solo Piano\07. Four Ballades, Op.10 - IV. Andante con moto.wav

Pre-gap length 0:00:01.42

Peak level 44.3 %
Extraction speed 2.5 X
Track quality 100.0 %
Test CRC F24BA79D
Copy CRC F24BA79D
Accurately ripped (confidence 2) [3690C0F0]
Copy OK


All tracks accurately ripped

No errors occurred

End of status report

==== Log checksum 93B11797A58DB2E6D6CCCDF850E7BFF1C33D3FFA5112D7DF3C03D59402BB52B7 ====

Exact Audio Copy V1.0 beta 1 from 15. November 2010

EAC extraction logfile from 22. March 2011, 23:24

Johannes Brahms / Works for Solo Piano

Used drive : TSSTcorpCDDVDW TS-L633C Adapter: 2 ID: 0

Read mode : Secure
Utilize accurate stream : Yes
Defeat audio cache : Yes
Make use of C2 pointers : No

Read offset correction : 6
Overread into Lead-In and Lead-Out : No
Fill up missing offset samples with silence : Yes
Delete leading and trailing silent blocks : No
Null samples used in CRC calculations : Yes
Used interface : Native Win32 interface for Win NT & 2000
Gap handling : Appended to previous track

Used output format : User Defined Encoder
Selected bitrate : 128 kBit/s
Quality : High
Add ID3 tag : No
Command line compressor : C:\Program Files (x86)\Exact Audio Copy\Flac\flac.exe
Additional command line options : -V -8 -T "artist=%a" -T "title=%t" -T "album=%g" -T "date=%y" -T "tracknumber=%n" -T "genre=%m" %s


TOC of the extracted CD

Track | Start | Length | Start sector | End sector
––––––––––––––––––––––––––––-
1 | 0:00.32 | 19:31.73 | 32 | 87929
2 | 19:32.30 | 16:46.62 | 87930 | 163441
3 | 36:19.17 | 6:05.00 | 163442 | 190816
4 | 42:24.17 | 9:22.58 | 190817 | 233024
5 | 51:47.00 | 8:04.67 | 233025 | 269391
6 | 59:51.67 | 8:29.05 | 269392 | 307571


Track 1

Filename G:\EACRIPS\Johannes Brahms - 1997 - Works for Solo Piano\01. Variations on a Theme by Schumann in F# Minor, Op.9.wav

Pre-gap length 0:00:02.42

Peak level 85.8 %
Extraction speed 3.2 X
Track quality 100.0 %
Test CRC 6A743238
Copy CRC 6A743238
Accurately ripped (confidence 9) [DCB39F89]
Copy OK

Track 2

Filename G:\EACRIPS\Johannes Brahms - 1997 - Works for Solo Piano\02. Variations on an Original Theme in D, Op.21 No.1.wav

Pre-gap length 0:00:04.70

Peak level 82.5 %
Extraction speed 3.8 X
Track quality 99.9 %
Test CRC 4887D011
Copy CRC 4887D011
Accurately ripped (confidence 8) [D2AFAB27]
Copy OK

Track 3

Filename G:\EACRIPS\Johannes Brahms - 1997 - Works for Solo Piano\03. Variations on a Hungarian Song in D, Op.21 No.2.wav

Pre-gap length 0:00:05.36

Peak level 85.9 %
Extraction speed 4.2 X
Track quality 100.0 %
Test CRC 8CA3CD45
Copy CRC 8CA3CD45
Accurately ripped (confidence 9) [CD6CE3B6]
Copy OK

Track 4

Filename G:\EACRIPS\Johannes Brahms - 1997 - Works for Solo Piano\04. 16 Waltzes, Op.39 Nos 1-8.wav

Pre-gap length 0:00:06.96

Peak level 71.3 %
Extraction speed 4.6 X
Track quality 100.0 %
Test CRC A4B082E3
Copy CRC A4B082E3
Accurately ripped (confidence 9) [254B2DDD]
Copy OK

Track 5

Filename G:\EACRIPS\Johannes Brahms - 1997 - Works for Solo Piano\05. 16 Waltzes, Op.39 Nos 9-16.wav

Peak level 74.1 %
Extraction speed 4.8 X
Track quality 100.0 %
Test CRC DE5E8C42
Copy CRC DE5E8C42
Accurately ripped (confidence 9) [195AB42F]
Copy OK

Track 6

Filename G:\EACRIPS\Johannes Brahms - 1997 - Works for Solo Piano\06. Scherzo in E flat minor, op.4.wav

Pre-gap length 0:00:05.73

Peak level 72.7 %
Extraction speed 4.5 X
Track quality 99.9 %
Test CRC D376F6FC
Copy CRC D376F6FC
Accurately ripped (confidence 9) [4AF71EF4]
Copy OK


All tracks accurately ripped

No errors occurred

End of status report

==== Log checksum EDDDFA1D61FD8A7C02524D4730F61DD19BEA0AE18C89D6B18F342C2CCAA348EB ====

Exact Audio Copy V1.0 beta 1 from 15. November 2010

EAC extraction logfile from 23. March 2011, 12:17

Johannes Brahms / Works for Solo Piano

Used drive : TSSTcorpCDDVDW TS-L633C Adapter: 2 ID: 0

Read mode : Secure
Utilize accurate stream : Yes
Defeat audio cache : Yes
Make use of C2 pointers : No

Read offset correction : 6
Overread into Lead-In and Lead-Out : No
Fill up missing offset samples with silence : Yes
Delete leading and trailing silent blocks : No
Null samples used in CRC calculations : Yes
Used interface : Native Win32 interface for Win NT & 2000
Gap handling : Appended to previous track

Used output format : User Defined Encoder
Selected bitrate : 128 kBit/s
Quality : High
Add ID3 tag : No
Command line compressor : C:\Program Files (x86)\Exact Audio Copy\Flac\flac.exe
Additional command line options : -V -8 -T "artist=%a" -T "title=%t" -T "album=%g" -T "date=%y" -T "tracknumber=%n" -T "genre=%m" %s


TOC of the extracted CD

Track | Start | Length | Start sector | End sector
––––––––––––––––––––––––––––-
1 | 0:00.33 | 8:04.27 | 33 | 36359
2 | 8:04.60 | 5:40.70 | 36360 | 61929
3 | 13:45.55 | 5:21.35 | 61930 | 86039
4 | 19:07.15 | 6:16.33 | 86040 | 114272
5 | 25:23.48 | 5:32.25 | 114273 | 139197
6 | 30:55.73 | 6:00.12 | 139198 | 166209
7 | 36:56.10 | 3:55.68 | 166210 | 183902
8 | 40:52.03 | 11:17.00 | 183903 | 234677
9 | 52:09.03 | 9:23.52 | 234678 | 276954
10 | 61:32.55 | 5:58.10 | 276955 | 303814


Track 1

Filename G:\EACRIPS\Johannes Brahms - 1997 - Works for Solo Piano\01. Sonata No.1 in C major, Op.1 - I. Allegro.wav

Pre-gap length 0:00:02.44

Peak level 94.4 %
Extraction speed 1.2 X
Track quality 100.0 %
Test CRC 16A956E0
Copy CRC 16A956E0
Accurately ripped (confidence 9) [D4FBCA08]
Copy OK

Track 2

Filename G:\EACRIPS\Johannes Brahms - 1997 - Works for Solo Piano\02. Sonata No.1 in C major, Op.1 - II. Andante.wav

Pre-gap length 0:00:01.36

Peak level 65.2 %
Extraction speed 1.4 X
Track quality 100.0 %
Test CRC C465FFBF
Copy CRC C465FFBF
Accurately ripped (confidence 9) [A9F493D4]
Copy OK

Track 3

Filename G:\EACRIPS\Johannes Brahms - 1997 - Works for Solo Piano\03. Sonata No.1 in C major, Op.1 - III. Scherzo- Allegro moto e con fuoco.wav

Peak level 86.9 %
Extraction speed 1.5 X
Track quality 100.0 %
Test CRC 29A1D320
Copy CRC 29A1D320
Accurately ripped (confidence 9) [507F344B]
Copy OK

Track 4

Filename G:\EACRIPS\Johannes Brahms - 1997 - Works for Solo Piano\04. Sonata No.1 in C major, Op.1 - IV. Finale- Allegro con fuoco.wav

Pre-gap length 0:00:02.09

Peak level 91.4 %
Extraction speed 1.7 X
Track quality 100.0 %
Test CRC 6FA52F28
Copy CRC 6FA52F28
Accurately ripped (confidence 9) [F051CF7D]
Copy OK

Track 5

Filename G:\EACRIPS\Johannes Brahms - 1997 - Works for Solo Piano\05. Sonata No.2 in F# minor, Op.2 - I. Allegro non troppo ma energico.wav

Pre-gap length 0:00:07.84

Peak level 99.1 %
Extraction speed 1.8 X
Track quality 100.0 %
Test CRC 78DB1023
Copy CRC 78DB1023
Accurately ripped (confidence 9) [C12FB0E3]
Copy OK

Track 6

Filename G:\EACRIPS\Johannes Brahms - 1997 - Works for Solo Piano\06. Sonata No.2 in F# minor, Op.2 - II. Andante con espressione.wav

Pre-gap length 0:00:03.60

Peak level 88.3 %
Extraction speed 1.9 X
Track quality 100.0 %
Test CRC E722B8E6
Copy CRC E722B8E6
Accurately ripped (confidence 8) [3C168F90]
Copy OK

Track 7

Filename G:\EACRIPS\Johannes Brahms - 1997 - Works for Solo Piano\07. Sonata No.2 in F# minor, Op.2 - III. Scherzo- Allegro.wav

Peak level 78.7 %
Extraction speed 1.9 X
Track quality 100.0 %
Test CRC EA17C994
Copy CRC EA17C994
Accurately ripped (confidence 9) [BAE8E1BD]
Copy OK

Track 8

Filename G:\EACRIPS\Johannes Brahms - 1997 - Works for Solo Piano\08. Sonata No.2 in F# minor, Op.2 - IV. Finale- Introduzione (sostenuto).wav

Pre-gap length 0:00:01.97

Peak level 80.7 %
Extraction speed 2.3 X
Track quality 100.0 %
Test CRC 053A4B7C
Copy CRC 053A4B7C
Accurately ripped (confidence 9) [627B4900]
Copy OK

Track 9

Filename G:\EACRIPS\Johannes Brahms - 1997 - Works for Solo Piano\09. Rhapsody No.1 in B minor Op.79 - I. Agitato.wav

Pre-gap length 0:00:07.93

Peak level 100.0 %
Extraction speed 2.4 X
Track quality 100.0 %
Test CRC 9D2022F4
Copy CRC 9D2022F4
Accurately ripped (confidence 9) [9F5FFCC0]
Copy OK

Track 10

Filename G:\EACRIPS\Johannes Brahms - 1997 - Works for Solo Piano\10. Rhapsody No.1 in G minor Op.79 - II. Molto passionato, ma non troppo allegro.wav

Pre-gap length 0:00:03.26

Peak level 100.0 %
Extraction speed 2.4 X
Track quality 100.0 %
Test CRC 95ECB4CC
Copy CRC 95ECB4CC
Accurately ripped (confidence 9) [A6A18633]
Copy OK


All tracks accurately ripped

No errors occurred

End of status report

==== Log checksum DEA75A849AEDD414742E973F681C56C26097E2898F3BD70C4BD2BDDBE73E593F ====

Exact Audio Copy V1.0 beta 1 from 15. November 2010

EAC extraction logfile from 23. March 2011, 16:09

Johannes Brahms / Works for Solo Piano

Used drive : TSSTcorpCDDVDW TS-L633C Adapter: 2 ID: 0

Read mode : Secure
Utilize accurate stream : Yes
Defeat audio cache : Yes
Make use of C2 pointers : No

Read offset correction : 6
Overread into Lead-In and Lead-Out : No
Fill up missing offset samples with silence : Yes
Delete leading and trailing silent blocks : No
Null samples used in CRC calculations : Yes
Used interface : Native Win32 interface for Win NT & 2000
Gap handling : Appended to previous track

Used output format : User Defined Encoder
Selected bitrate : 128 kBit/s
Quality : High
Add ID3 tag : No
Command line compressor : C:\Program Files (x86)\Exact Audio Copy\Flac\flac.exe
Additional command line options : -V -8 -T "artist=%a" -T "title=%t" -T "album=%g" -T "date=%y" -T "tracknumber=%n" -T "genre=%m" %s


TOC of the extracted CD

Track | Start | Length | Start sector | End sector
––––––––––––––––––––––––––––-
1 | 0:00.33 | 10:44.22 | 33 | 48354
2 | 10:44.55 | 12:19.20 | 48355 | 103799
3 | 23:04.00 | 4:44.50 | 103800 | 125149
4 | 27:48.50 | 3:26.43 | 125150 | 140642
5 | 31:15.18 | 7:10.37 | 140643 | 172929
6 | 38:25.55 | 1:59.70 | 172930 | 181924
7 | 40:25.50 | 3:48.45 | 181925 | 199069
8 | 44:14.20 | 2:37.73 | 199070 | 210917
9 | 46:52.18 | 4:20.25 | 210918 | 230442
10 | 51:12.43 | 3:30.65 | 230443 | 246257
11 | 54:43.33 | 4:06.00 | 246258 | 264707
12 | 58:49.33 | 2:35.30 | 264708 | 276362


Track 1

Filename G:\EACRIPS\Johannes Brahms - 1997 - Works for Solo Piano\01. Sonata No. 3 in F minor, Op. 5 - I. Allegro maestoso.wav

Pre-gap length 0:00:02.44

Peak level 93.7 %
Extraction speed 2.9 X
Track quality 100.0 %
Test CRC AAD84315
Copy CRC AAD84315
Accurately ripped (confidence 12) [A0799819]
Copy OK

Track 2

Filename G:\EACRIPS\Johannes Brahms - 1997 - Works for Solo Piano\02. Sonata No. 3 in F minor, Op. 5 - II. Andante espressivo - Andante molto.wav

Pre-gap length 0:00:02.20

Peak level 92.4 %
Extraction speed 3.5 X
Track quality 100.0 %
Test CRC 144FF610
Copy CRC 144FF610
Accurately ripped (confidence 2) [F3D77B23]
Copy OK

Track 3

Filename G:\EACRIPS\Johannes Brahms - 1997 - Works for Solo Piano\03. Sonata No. 3 in F minor, Op. 5 - III. Scherzo- Allegro energico.wav

Pre-gap length 0:00:02.76

Peak level 90.5 %
Extraction speed 3.6 X
Track quality 100.0 %
Test CRC 43A88D37
Copy CRC 43A88D37
Accurately ripped (confidence 2) [32BD7FF4]
Copy OK

Track 4

Filename G:\EACRIPS\Johannes Brahms - 1997 - Works for Solo Piano\04. Sonata No. 3 in F minor, Op. 5 - IV. Intermezzo (Rückblick)- Andante molto.wav

Pre-gap length 0:00:03.86

Peak level 87.9 %
Extraction speed 3.5 X
Track quality 100.0 %
Test CRC B4E3AF7C
Copy CRC B4E3AF7C
Accurately ripped (confidence 2) [D2357538]
Copy OK

Track 5

Filename G:\EACRIPS\Johannes Brahms - 1997 - Works for Solo Piano\05. Sonata No. 3 in F minor, Op. 5 - V. Finale- Allegro moderato ma rubato.wav

Peak level 91.3 %
Extraction speed 4.1 X
Track quality 100.0 %
Test CRC AD6B5111
Copy CRC AD6B5111
Accurately ripped (confidence 2) [B26D51CE]
Copy OK

Track 6

Filename G:\EACRIPS\Johannes Brahms - 1997 - Works for Solo Piano\06. Fantasias, Op.116 - I. Capriccio in D minor- Presto energico.wav

Pre-gap length 0:00:09.40

Peak level 56.6 %
Extraction speed 3.4 X
Track quality 100.0 %
Test CRC FC855FCB
Copy CRC FC855FCB
Accurately ripped (confidence 2) [78FAF2D1]
Copy OK

Track 7

Filename G:\EACRIPS\Johannes Brahms - 1997 - Works for Solo Piano\07. Fantasias, Op.116 - II. Intermezzo in A minor- Andante.wav

Peak level 36.5 %
Extraction speed 4.0 X
Track quality 100.0 %
Test CRC 15AB6B82
Copy CRC 15AB6B82
Accurately ripped (confidence 2) [C34D3CB3]
Copy OK

Track 8

Filename G:\EACRIPS\Johannes Brahms - 1997 - Works for Solo Piano\08. Fantasias, Op.116 - III. Capriccio in G minor- Allegro passionato.wav

Peak level 68.9 %
Extraction speed 3.8 X
Track quality 100.0 %
Test CRC B7B7747F
Copy CRC B7B7747F
Accurately ripped (confidence 2) [F8D3BD09]
Copy OK

Track 9

Filename G:\EACRIPS\Johannes Brahms - 1997 - Works for Solo Piano\09. Fantasias, Op.116 - IV. Intermezzo in E major- Adagio.wav

Peak level 42.7 %
Extraction speed 3.4 X
Track quality 99.9 %
Test CRC 600B6C6A
Copy CRC 600B6C6A
Accurately ripped (confidence 2) [16A87D24]
Copy OK

Track 10

Filename G:\EACRIPS\Johannes Brahms - 1997 - Works for Solo Piano\10. Fantasias, Op.116 - V. Intermezzo in E major- Andante con grazia ed intimissimo sentimento.wav

Peak level 29.2 %
Extraction speed 3.3 X
Track quality 99.9 %
Test CRC DCFE5742
Copy CRC DCFE5742
Accurately ripped (confidence 2) [E62B5BD0]
Copy OK

Track 11

Filename G:\EACRIPS\Johannes Brahms - 1997 - Works for Solo Piano\11. Fantasias, Op.116 - VI. Intermezzo in E major- Andantino teneramente.wav

Pre-gap length 0:00:01.73

Peak level 60.6 %
Extraction speed 4.3 X
Track quality 100.0 %
Test CRC 1CCF0374
Copy CRC 1CCF0374
Accurately ripped (confidence 2) [C08E4C8A]
Copy OK

Track 12

Filename G:\EACRIPS\Johannes Brahms - 1997 - Works for Solo Piano\12. Fantasias, Op.116 - VII. Capriccio in D minor- Allegro agitato.wav

Pre-gap length 0:00:00.30

Peak level 51.0 %
Extraction speed 3.0 X
Track quality 99.9 %
Test CRC CAD3D118
Copy CRC CAD3D118
Accurately ripped (confidence 2) [F0095F65]
Copy OK


All tracks accurately ripped

No errors occurred

End of status report

==== Log checksum D57F3CC20EBA51CF74401AB20E150EDC872EC9D31640496FF8798F9E6F4C707C ====

Exact Audio Copy V1.0 beta 1 from 15. November 2010

EAC extraction logfile from 23. March 2011, 18:02

Johannes Brahms / Works for Solo Piano

Used drive : TSSTcorpCDDVDW TS-L633C Adapter: 2 ID: 0

Read mode : Secure
Utilize accurate stream : Yes
Defeat audio cache : Yes
Make use of C2 pointers : No

Read offset correction : 6
Overread into Lead-In and Lead-Out : No
Fill up missing offset samples with silence : Yes
Delete leading and trailing silent blocks : No
Null samples used in CRC calculations : Yes
Used interface : Native Win32 interface for Win NT & 2000
Gap handling : Appended to previous track

Used output format : User Defined Encoder
Selected bitrate : 128 kBit/s
Quality : High
Add ID3 tag : No
Command line compressor : C:\Program Files (x86)\Exact Audio Copy\Flac\flac.exe
Additional command line options : -V -8 -T "artist=%a" -T "title=%t" -T "album=%g" -T "date=%y" -T "tracknumber=%n" -T "genre=%m" %s


TOC of the extracted CD

Track | Start | Length | Start sector | End sector
––––––––––––––––––––––––––––-
1 | 0:00.33 | 3:38.52 | 33 | 16434
2 | 3:39.10 | 3:18.23 | 16435 | 31307
3 | 6:57.33 | 2:21.25 | 31308 | 41907
4 | 9:18.58 | 2:19.12 | 41908 | 52344
5 | 11:37.70 | 3:11.60 | 52345 | 66729
6 | 14:49.55 | 3:51.73 | 66730 | 84127
7 | 18:41.53 | 2:32.20 | 84128 | 95547
8 | 21:13.73 | 3:33.60 | 95548 | 111582
9 | 24:47.58 | 1:53.12 | 111583 | 120069
10 | 26:40.70 | 6:04.58 | 120070 | 147427
11 | 32:45.53 | 3:05.05 | 147428 | 161307
12 | 35:50.58 | 2:33.05 | 161308 | 172787
13 | 38:23.63 | 4:09.52 | 172788 | 191514
14 | 42:33.40 | 4:59.03 | 191515 | 213942
15 | 47:32.43 | 2:54.15 | 213943 | 227007
16 | 50:26.58 | 4:38.07 | 227008 | 247864
17 | 55:04.65 | 1:26.63 | 247865 | 254377
18 | 56:31.53 | 4:59.22 | 254378 | 276824


Track 1

Filename G:\EACRIPS\Johannes Brahms - 1997 - Works for Solo Piano\01. 8 Pieces, Op.76 - I. Capriccio- Un poco agitato.wav

Pre-gap length 0:00:02.44

Peak level 51.8 %
Extraction speed 2.2 X
Track quality 100.0 %
Test CRC 19BB521B
Copy CRC 19BB521B
Accurately ripped (confidence 10) [653370B2]
Copy OK

Track 2

Filename G:\EACRIPS\Johannes Brahms - 1997 - Works for Solo Piano\02. 8 Pieces, Op.76 - II. Capriccio- Allegretto non troppo.wav

Pre-gap length 0:00:01.60

Peak level 35.9 %
Extraction speed 2.3 X
Track quality 100.0 %
Test CRC 91CB663C
Copy CRC 91CB663C
Accurately ripped (confidence 10) [980A1E56]
Copy OK

Track 3

Filename G:\EACRIPS\Johannes Brahms - 1997 - Works for Solo Piano\03. 8 Pieces, Op.76 - III. Intermezzo- Grazioso.wav

Pre-gap length 0:00:00.73

Peak level 24.4 %
Extraction speed 2.3 X
Track quality 100.0 %
Test CRC 88BDD69D
Copy CRC 88BDD69D
Accurately ripped (confidence 10) [4F996B88]
Copy OK

Track 4

Filename G:\EACRIPS\Johannes Brahms - 1997 - Works for Solo Piano\04. 8 Pieces, Op.76 - IV. Intermezzo- Allegretto grazioso.wav

Pre-gap length 0:00:00.57

Peak level 42.5 %
Extraction speed 1.7 X
Track quality 99.9 %
Test CRC 6FB29807
Copy CRC 6FB29807
Accurately ripped (confidence 10) [D0031970]
Copy OK

Track 5

Filename G:\EACRIPS\Johannes Brahms - 1997 - Works for Solo Piano\05. 8 Pieces, Op.76 - V. Capriccio- Agitato, ma non troppo presto.wav

Pre-gap length 0:00:02.00

Peak level 69.8 %
Extraction speed 2.7 X
Track quality 100.0 %
Test CRC 988C0C79
Copy CRC 988C0C79
Accurately ripped (confidence 10) [604DC3A4]
Copy OK

Track 6

Filename G:\EACRIPS\Johannes Brahms - 1997 - Works for Solo Piano\06. 8 Pieces, Op.76 - VI. Intermezzo- Andante con moto.wav

Pre-gap length 0:00:01.96

Peak level 36.6 %
Extraction speed 2.9 X
Track quality 100.0 %
Test CRC 8BF72430
Copy CRC 8BF72430
Accurately ripped (confidence 10) [EB7DB734]
Copy OK

Track 7

Filename G:\EACRIPS\Johannes Brahms - 1997 - Works for Solo Piano\07. 8 Pieces, Op.76 - VII. Intermezzo- Moderato semplice.wav

Pre-gap length 0:00:01.20

Peak level 43.7 %
Extraction speed 2.8 X
Track quality 100.0 %
Test CRC E5FD4F53
Copy CRC E5FD4F53
Accurately ripped (confidence 10) [61E34B5C]
Copy OK

Track 8

Filename G:\EACRIPS\Johannes Brahms - 1997 - Works for Solo Piano\08. 8 Pieces, Op.76 - VIII. Capriccio- Grazioso ed un poco vivace.wav

Pre-gap length 0:00:02.00

Peak level 67.2 %
Extraction speed 3.1 X
Track quality 100.0 %
Test CRC 1FA5A225
Copy CRC 1FA5A225
Accurately ripped (confidence 10) [67DA5C47]
Copy OK

Track 9

Filename G:\EACRIPS\Johannes Brahms - 1997 - Works for Solo Piano\09. 6 Pieces, Op.118 - I. Intermezzo- Allegro non assai, ma molto appassionato.wav

Pre-gap length 0:00:05.77

Peak level 62.2 %
Extraction speed 2.8 X
Track quality 100.0 %
Test CRC 82642450
Copy CRC 82642450
Accurately ripped (confidence 10) [4ADBA200]
Copy OK

Track 10

Filename G:\EACRIPS\Johannes Brahms - 1997 - Works for Solo Piano\10. 6 Pieces, Op.118 - II. Intermezzo- Andante teneramente.wav

Pre-gap length 0:00:01.22

Peak level 43.7 %
Extraction speed 3.6 X
Track quality 100.0 %
Test CRC 5D49E5D1
Copy CRC 5D49E5D1
Accurately ripped (confidence 10) [53D84059]
Copy OK

Track 11

Filename G:\EACRIPS\Johannes Brahms - 1997 - Works for Solo Piano\11. 6 Pieces, Op.118 - III. Ballade- Allegro energico.wav

Pre-gap length 0:00:00.84

Peak level 64.9 %
Extraction speed 3.5 X
Track quality 100.0 %
Test CRC B403B6F4
Copy CRC B403B6F4
Accurately ripped (confidence 10) [40A28DB1]
Copy OK

Track 12

Filename G:\EACRIPS\Johannes Brahms - 1997 - Works for Solo Piano\12. 6 Pieces, Op.118 - IV. Intermezzo- Allegretto un poco agitato.wav

Pre-gap length 0:00:01.10

Peak level 66.6 %
Extraction speed 2.5 X
Track quality 99.9 %
Test CRC 7308D90D
Copy CRC 7308D90D
Accurately ripped (confidence 9) [B34AD64E]
Copy OK

Track 13

Filename G:\EACRIPS\Johannes Brahms - 1997 - Works for Solo Piano\13. 6 Pieces, Op.118 - V. Romanze- Andante.wav

Pre-gap length 0:00:01.04

Peak level 45.9 %
Extraction speed 3.1 X
Track quality 99.9 %
Test CRC 8E6E3DDB
Copy CRC 8E6E3DDB
Accurately ripped (confidence 10) [95C3C06B]
Copy OK

Track 14

Filename G:\EACRIPS\Johannes Brahms - 1997 - Works for Solo Piano\14. 6 Pieces, Op.118 - VI. Intermezzo- Andante, largo e mesto.wav

Peak level 68.1 %
Extraction speed 4.1 X
Track quality 100.0 %
Test CRC 3A8ABB51
Copy CRC 3A8ABB51
Accurately ripped (confidence 10) [028ECB5F]
Copy OK

Track 15

Filename G:\EACRIPS\Johannes Brahms - 1997 - Works for Solo Piano\15. 4 Pieces, Op.119 - I. Intermezzo- Adagio.wav

Pre-gap length 0:00:05.04

Peak level 43.7 %
Extraction speed 3.9 X
Track quality 100.0 %
Test CRC A5BFEBFC
Copy CRC A5BFEBFC
Accurately ripped (confidence 10) [8B4F84DC]
Copy OK

Track 16

Filename G:\EACRIPS\Johannes Brahms - 1997 - Works for Solo Piano\16. 4 Pieces, Op.119 - II. Intermezzo- Andantino un poco agitato.wav

Peak level 56.5 %
Extraction speed 4.2 X
Track quality 100.0 %
Test CRC AEA8A9E2
Copy CRC AEA8A9E2
Accurately ripped (confidence 10) [4C4B4431]
Copy OK

Track 17

Filename G:\EACRIPS\Johannes Brahms - 1997 - Works for Solo Piano\17. 4 Pieces, Op.119 - III. Intermezzo- Grazioso e giocoso.wav

Peak level 75.2 %
Extraction speed 3.4 X
Track quality 100.0 %
Test CRC 794A83F1
Copy CRC 794A83F1
Accurately ripped (confidence 10) [DBE41012]
Copy OK

Track 18

Filename G:\EACRIPS\Johannes Brahms - 1997 - Works for Solo Piano\18. 4 Pieces, Op.119 - IV. Rhapsody- Allegro risoluto.wav

Peak level 90.5 %
Extraction speed 4.5 X
Track quality 100.0 %
Test CRC 942DC36B
Copy CRC 942DC36B
Accurately ripped (confidence 10) [15640FAB]
Copy OK


All tracks accurately ripped

No errors occurred

End of status report

==== Log checksum CF1E657A738EBA57D82BA2AD5AC2AB0317CE8719F4516EFEA385CDA386807E2D ====

Exact Audio Copy V1.0 beta 1 from 15. November 2010

EAC extraction logfile from 23. March 2011, 19:36

Johannes Brahms / Works for Solo Piano

Used drive : TSSTcorpCDDVDW TS-L633C Adapter: 2 ID: 0

Read mode : Secure
Utilize accurate stream : Yes
Defeat audio cache : Yes
Make use of C2 pointers : No

Read offset correction : 6
Overread into Lead-In and Lead-Out : No
Fill up missing offset samples with silence : Yes
Delete leading and trailing silent blocks : No
Null samples used in CRC calculations : Yes
Used interface : Native Win32 interface for Win NT & 2000
Gap handling : Appended to previous track

Used output format : User Defined Encoder
Selected bitrate : 128 kBit/s
Quality : High
Add ID3 tag : No
Command line compressor : C:\Program Files (x86)\Exact Audio Copy\Flac\flac.exe
Additional command line options : -V -8 -T "artist=%a" -T "title=%t" -T "album=%g" -T "date=%y" -T "tracknumber=%n" -T "genre=%m" %s


TOC of the extracted CD

Track | Start | Length | Start sector | End sector
––––––––––––––––––––––––––––-
1 | 0:00.32 | 5:14.28 | 32 | 23609
2 | 5:14.60 | 4:33.22 | 23610 | 44106
3 | 9:48.07 | 5:29.35 | 44107 | 68816
4 | 15:17.42 | 2:51.15 | 68817 | 81656
5 | 18:08.57 | 3:07.40 | 81657 | 95721
6 | 21:16.22 | 2:20.30 | 95722 | 106251
7 | 23:36.52 | 4:15.18 | 106252 | 125394
8 | 27:51.70 | 2:11.47 | 125395 | 135266
9 | 30:03.42 | 3:09.23 | 135267 | 149464
10 | 33:12.65 | 1:27.07 | 149465 | 155996
11 | 34:39.72 | 2:33.63 | 155997 | 167534
12 | 37:13.60 | 1:42.65 | 167535 | 175249
13 | 38:56.50 | 1:56.00 | 175250 | 183949
14 | 40:52.50 | 2:10.20 | 183950 | 193719
15 | 43:02.70 | 2:02.10 | 193720 | 202879
16 | 45:05.05 | 1:17.72 | 202880 | 208726
17 | 46:23.02 | 1:27.08 | 208727 | 215259
18 | 47:50.10 | 2:34.65 | 215260 | 226874
19 | 50:25.00 | 2:03.27 | 226875 | 236126
20 | 52:28.27 | 2:51.38 | 236127 | 248989
21 | 55:19.65 | 1:13.45 | 248990 | 254509
22 | 56:33.35 | 1:50.07 | 254510 | 262766
23 | 58:23.42 | 2:01.10 | 262767 | 271851
24 | 60:24.52 | 1:24.53 | 271852 | 278204


Track 1

Filename G:\EACRIPS\Johannes Brahms - 1997 - Works for Solo Piano\01. Intermezzo, Op.117 - I. Andante Moderato.wav

Pre-gap length 0:00:02.42

Peak level 12.7 %
Extraction speed 2.2 X
Track quality 100.0 %
Test CRC A088DA48
Copy CRC A088DA48
Accurately ripped (confidence 7) [9EE0F961]
Copy OK

Track 2

Filename G:\EACRIPS\Johannes Brahms - 1997 - Works for Solo Piano\02. Intermezzo, Op.117 - II. Andante non troppo e con molto espressione.wav

Peak level 47.9 %
Extraction speed 2.0 X
Track quality 99.9 %
Test CRC 4A08C50E
Copy CRC 4A08C50E
Accurately ripped (confidence 7) [A36D37B3]
Copy OK

Track 3

Filename G:\EACRIPS\Johannes Brahms - 1997 - Works for Solo Piano\03. Intermezzo, Op.117 - III. Andante con moto.wav

Peak level 43.2 %
Extraction speed 2.7 X
Track quality 100.0 %
Test CRC F649296E
Copy CRC F649296E
Accurately ripped (confidence 7) [16FE380B]
Copy OK

Track 4

Filename G:\EACRIPS\Johannes Brahms - 1997 - Works for Solo Piano\04. Hungarian Dances for Solo Piano No.1 in G minor.wav

Pre-gap length 0:00:05.60

Peak level 65.9 %
Extraction speed 2.7 X
Track quality 100.0 %
Test CRC 6BA04991
Copy CRC 6BA04991
Accurately ripped (confidence 7) [C5BD89D0]
Copy OK

Track 5

Filename G:\EACRIPS\Johannes Brahms - 1997 - Works for Solo Piano\05. Hungarian Dances for Solo Piano No.2 in D minor.wav

Peak level 70.8 %
Extraction speed 2.5 X
Track quality 100.0 %
Test CRC 36E54F38
Copy CRC 36E54F38
Accurately ripped (confidence 7) [11649A58]
Copy OK

Track 6

Filename G:\EACRIPS\Johannes Brahms - 1997 - Works for Solo Piano\06. Hungarian Dances for Solo Piano No.3 in F major.wav

Pre-gap length 0:00:01.56

Peak level 75.6 %
Extraction speed 2.8 X
Track quality 100.0 %
Test CRC 694DB6AD
Copy CRC 694DB6AD
Accurately ripped (confidence 7) [123A5F97]
Copy OK

Track 7

Filename G:\EACRIPS\Johannes Brahms - 1997 - Works for Solo Piano\07. Hungarian Dances for Solo Piano No.4 in F# minor.wav

Pre-gap length 0:00:01.42

Peak level 63.5 %
Extraction speed 3.2 X
Track quality 100.0 %
Test CRC 7DC00ACC
Copy CRC 7DC00ACC
Accurately ripped (confidence 6) [ABE4DD65]
Copy OK

Track 8

Filename G:\EACRIPS\Johannes Brahms - 1997 - Works for Solo Piano\08. Hungarian Dances for Solo Piano No.5 in F# minor.wav

Pre-gap length 0:00:01.04

Peak level 73.6 %
Extraction speed 3.0 X
Track quality 100.0 %
Test CRC E44C000A
Copy CRC E44C000A
Accurately ripped (confidence 7) [D8355078]
Copy OK

Track 9

Filename G:\EACRIPS\Johannes Brahms - 1997 - Works for Solo Piano\09. Hungarian Dances for Solo Piano No.6 in D flat major.wav

Pre-gap length 0:00:01.36

Peak level 76.5 %
Extraction speed 3.3 X
Track quality 100.0 %
Test CRC 2FA9C4CF
Copy CRC 2FA9C4CF
Accurately ripped (confidence 7) [4F97C9F9]
Copy OK

Track 10

Filename G:\EACRIPS\Johannes Brahms - 1997 - Works for Solo Piano\10. Hungarian Dances for Solo Piano No.7 in F major.wav

Pre-gap length 0:00:00.77

Peak level 65.6 %
Extraction speed 2.7 X
Track quality 100.0 %
Test CRC B517F640
Copy CRC B517F640
Accurately ripped (confidence 7) [8D4891F1]
Copy OK

Track 11

Filename G:\EACRIPS\Johannes Brahms - 1997 - Works for Solo Piano\11. Hungarian Dances for Solo Piano No.8 in A minor.wav

Pre-gap length 0:00:00.13

Peak level 72.5 %
Extraction speed 3.3 X
Track quality 100.0 %
Test CRC 0146023D
Copy CRC 0146023D
Accurately ripped (confidence 7) [8B679FEF]
Copy OK

Track 12

Filename G:\EACRIPS\Johannes Brahms - 1997 - Works for Solo Piano\12. Hungarian Dances for Solo Piano No.9 in E minor.wav

Peak level 65.1 %
Extraction speed 3.0 X
Track quality 100.0 %
Test CRC C3F3A775
Copy CRC C3F3A775
Accurately ripped (confidence 7) [4FF093B3]
Copy OK

Track 13

Filename G:\EACRIPS\Johannes Brahms - 1997 - Works for Solo Piano\13. Hungarian Dances for Solo Piano No.10 in E major.wav

Peak level 67.3 %
Extraction speed 3.0 X
Track quality 100.0 %
Test CRC 77A8EFE3
Copy CRC 77A8EFE3
Accurately ripped (confidence 7) [6EF43D71]
Copy OK

Track 14

Filename G:\EACRIPS\Johannes Brahms - 1997 - Works for Solo Piano\14. Hungarian Dances for Piano Duet No.1 in D minor.wav

Pre-gap length 0:00:04.44

Peak level 56.2 %
Extraction speed 3.3 X
Track quality 100.0 %
Test CRC 32F5801B
Copy CRC 32F5801B
Accurately ripped (confidence 7) [9958B676]
Copy OK

Track 15

Filename G:\EACRIPS\Johannes Brahms - 1997 - Works for Solo Piano\15. Hungarian Dances for Piano Duet No.2 in D minor.wav

Peak level 84.6 %
Extraction speed 3.3 X
Track quality 100.0 %
Test CRC EC86FC38
Copy CRC EC86FC38
Accurately ripped (confidence 7) [0F7AC612]
Copy OK

Track 16

Filename G:\EACRIPS\Johannes Brahms - 1997 - Works for Solo Piano\16. Hungarian Dances for Piano Duet No.3 in D major.wav

Peak level 88.5 %
Extraction speed 2.9 X
Track quality 100.0 %
Test CRC 7CD4B1D2
Copy CRC 7CD4B1D2
Accurately ripped (confidence 7) [89209182]
Copy OK

Track 17

Filename G:\EACRIPS\Johannes Brahms - 1997 - Works for Solo Piano\17. Hungarian Dances for Piano Duet No.4 in D minor.wav

Peak level 90.8 %
Extraction speed 3.0 X
Track quality 100.0 %
Test CRC 7A5F0EB3
Copy CRC 7A5F0EB3
Accurately ripped (confidence 7) [B456662F]
Copy OK

Track 18

Filename G:\EACRIPS\Johannes Brahms - 1997 - Works for Solo Piano\18. Hungarian Dances for Piano Duet No.5 in B flat major.wav

Peak level 83.4 %
Extraction speed 3.5 X
Track quality 100.0 %
Test CRC 45B229B8
Copy CRC 45B229B8
Accurately ripped (confidence 6) [50DF3ED7]
Copy OK

Track 19

Filename G:\EACRIPS\Johannes Brahms - 1997 - Works for Solo Piano\19. Hungarian Dances for Piano Duet No.6 in F minor.wav

Peak level 97.0 %
Extraction speed 3.3 X
Track quality 100.0 %
Test CRC 6E685B90
Copy CRC 6E685B90
Accurately ripped (confidence 7) [EB3554FB]
Copy OK

Track 20

Filename G:\EACRIPS\Johannes Brahms - 1997 - Works for Solo Piano\20. Hungarian Dances for Piano Duet No.7 in F# minor.wav

Pre-gap length 0:00:00.66

Peak level 81.8 %
Extraction speed 3.8 X
Track quality 100.0 %
Test CRC C481C5D2
Copy CRC C481C5D2
Accurately ripped (confidence 7) [100DF33B]
Copy OK

Track 21

Filename G:\EACRIPS\Johannes Brahms - 1997 - Works for Solo Piano\21. Hungarian Dances for Piano Duet No.8 in D major.wav

Peak level 93.0 %
Extraction speed 3.0 X
Track quality 100.0 %
Test CRC DCCFF140
Copy CRC DCCFF140
Accurately ripped (confidence 7) [FB9568DE]
Copy OK

Track 22

Filename G:\EACRIPS\Johannes Brahms - 1997 - Works for Solo Piano\22. Hungarian Dances for Piano Duet No.9 in B minor.wav

Peak level 94.5 %
Extraction speed 3.5 X
Track quality 100.0 %
Test CRC F2E2DA43
Copy CRC F2E2DA43
Accurately ripped (confidence 7) [B62C2A63]
Copy OK

Track 23

Filename G:\EACRIPS\Johannes Brahms - 1997 - Works for Solo Piano\23. Hungarian Dances for Piano Duet No.10 in E minor.wav

Pre-gap length 0:00:01.22

Peak level 93.0 %
Extraction speed 3.5 X
Track quality 100.0 %
Test CRC CF653E37
Copy CRC CF653E37
Accurately ripped (confidence 7) [FC78C795]
Copy OK

Track 24

Filename G:\EACRIPS\Johannes Brahms - 1997 - Works for Solo Piano\24. Hungarian Dances for Piano Duet No.11 in E minor.wav

Peak level 84.2 %
Extraction speed 3.2 X
Track quality 100.0 %
Test CRC E9EC3B8E
Copy CRC E9EC3B8E
Accurately ripped (confidence 7) [D638888F]
Copy OK


All tracks accurately ripped

No errors occurred

End of status report

==== Log checksum F2D95354456FDDB38C1C33739D22BBEE85427EBB2B14548EDF5CDE92CD996307 ====


Thanks to the Original customer.