Tags
Language
Tags

Karat - Balance (1997)

Posted By: Domestos
Karat - Balance (1997)

Karat - Balance (1997)
EAC Rip | FLAC (tracks+.cue, log) ~ 318.20 Mb | 47:07 | Scans included
Rock | Country: Germany | Label: K&P Music - 74321462662

Balance ist ein Album der deutschen Rockgruppe Karat aus dem Jahr 1997. Balance ist ein eher ruhiges, verhaltenes Album, das durch die überwiegende Anzahl romantischer Titel (wie Ganz egal, Vielleicht, Was wäre wenn, Stumme Schreie, Das andere Ufer oder Niemandsland) auffällt. Mit Titeln wie Kein Wort, Unerreichbar tief oder Nur für Geld sind auf dem Album auch bluesige beziehungsweise mit Laß’ uns wie…, Notlandung und Es bleibt dabei rockige Klänge vertreten. Im Zentrum des klanglich sehr geschlossenen Albums stehen zumeist Streicher, akustische oder leicht angezerrte Gitarren und ein dezentes Schlagwerk unter Einsatz vieler Percussioninstrumente, wodurch Dreilichs Stimme als Hauptklangfarbe effektiv zur Geltung kommt.

Balance schließt mit dem instrumentalen Kristall, das die Stimmung des gesamten Werkes abschließend widerspiegelt. Mit dem Song Der Ozean gelang Karat noch einmal ein größerer Erfolg, der nach dem Schlaganfall von Herbert Dreilich eine Art Comeback-Hit für diesen wurde.

Auf dem Album wirkte das Filmorchester Babelsberg mit.

Als Singles wurden die Titel Vielleicht (Radio-Edit) mit Vielleicht (Album-Edit) 1997 sowie eine Alternativ-Version von Der Ozean mit Lebenszeichen und Niemandsland 1998 ausgekoppelt.

Track List:
01. Kein Wort [0:03:04.45]
02. Ganz egal [0:03:31.35]
03. Vielleicht [0:03:32.07]
04. Was wäre wenn [0:04:15.38]
05. Lebenszeichen [0:02:52.62]
06. Der Ozean [0:03:14.13]
07. Laß' uns wie … [0:03:14.37]
08. Stumme Schreie [0:02:17.18]
09. Unerreichbar tief [0:03:02.20]
10. Nur für Geld [0:03:14.47]
11. Das andere Ufer [0:02:49.38]
12. Notlandung [0:03:54.27]
13. Es bleibt dabei [0:03:08.63]
14. Niemandsland [0:03:16.07]
15. Kristall [0:01:39.40]

Acoustic Guitar – Gisbert Piatkowski
Bass – Christian Liebig
Drums – Michael Schwandt
Electric Guitar – Bernd Römer
Keyboards – Martin Becker (3)
Lead Vocals – Herbert Dreilich
Mastered By – Ralf Bursy
Strings – Deutsches Filmorchester Babelsberg

Karat - Balance (1997)

Exact Audio Copy V1.0 beta 3 from 29. August 2011

Отчёт EAC об извлечении, выполненном 10. апреля 2018, 21:52

Karat / Balance

Дисковод: ASUS DRW-1814BLT Adapter: 5 ID: 0

Режим чтения : Достоверность
Использование точного потока : Да
Отключение кэша аудио : Да
Использование указателей C2 : Нет

Коррекция смещения при чтении : 6
Способность читать области Lead-in и Lead-out : Нет
Заполнение пропущенных сэмплов тишиной : Да
Удаление блоков с тишиной в начале и конце : Нет
При вычислениях CRC использовались нулевые сэмплы : Да
Интерфейс : Встроенный Win32-интерфейс для Win NT/2000
Обработка зазоров : Добавлено к предыдущему треку

Выходной формат : Пользовательский кодировщик
Выбранный битрейт : 128 kBit/s
Качество : Высокий
Добавление ID3-тега : Нет
Утилита сжатия : C:\Program Files\Exact Audio Copy\Flac\flac.exe
Дополнительные параметры : -V -8 -T "Genre=%genre%" -T "Artist=%artist%" -T "Title=%title%" -T "Album=%albumtitle%" -T "Date=%year%" -T "Tracknumber=%tracknr%" -T "Comment=EAC1.0b2 FLAC -8" %source%

TOC извлечённого CD

Трек | Старт | Длительность | Начальный сектор | Конечный сектор
––––––––––––––––––––––––––––––––––-
1 | 0:00.00 | 3:04.45 | 0 | 13844
2 | 3:04.45 | 3:31.35 | 13845 | 29704
3 | 6:36.05 | 3:32.07 | 29705 | 45611
4 | 10:08.12 | 4:15.38 | 45612 | 64774
5 | 14:23.50 | 2:52.62 | 64775 | 77736
6 | 17:16.37 | 3:14.13 | 77737 | 92299
7 | 20:30.50 | 3:14.37 | 92300 | 106886
8 | 23:45.12 | 2:17.18 | 106887 | 117179
9 | 26:02.30 | 3:02.20 | 117180 | 130849
10 | 29:04.50 | 3:14.47 | 130850 | 145446
11 | 32:19.22 | 2:49.38 | 145447 | 158159
12 | 35:08.60 | 3:54.27 | 158160 | 175736
13 | 39:03.12 | 3:08.63 | 175737 | 189899
14 | 42:12.00 | 3:16.07 | 189900 | 204606
15 | 45:28.07 | 1:39.40 | 204607 | 212071

Трек 1

Имя файла R:\Раздача 77\Karat - 1997 - Balance\01 Kein Wort .wav

Длина предзазора 0:00:02.00

Пиковый уровень 99.8 %
Скорость извлечения 3.1 X
Качество трека 99.9 %
CRC теста 468BE833
CRC копии 468BE833
Трек не обнаружен в базе AccurateRip
Копирование… OK

Трек 2

Имя файла R:\Раздача 77\Karat - 1997 - Balance\02 Ganz egal .wav

Длина предзазора 0:00:01.45

Пиковый уровень 99.8 %
Скорость извлечения 3.5 X
Качество трека 99.9 %
CRC теста 454AE563
CRC копии 454AE563
Трек не обнаружен в базе AccurateRip
Копирование… OK

Трек 3

Имя файла R:\Раздача 77\Karat - 1997 - Balance\03 Vielleicht .wav

Длина предзазора 0:00:01.45

Пиковый уровень 99.9 %
Скорость извлечения 4.3 X
Качество трека 100.0 %
CRC теста FFA588E0
CRC копии FFA588E0
Трек не обнаружен в базе AccurateRip
Копирование… OK

Трек 4

Имя файла R:\Раздача 77\Karat - 1997 - Balance\04 Was wäre wenn .wav

Длина предзазора 0:00:01.45

Пиковый уровень 99.8 %
Скорость извлечения 5.8 X
Качество трека 100.0 %
CRC теста 5C6DD51C
CRC копии 5C6DD51C
Трек не обнаружен в базе AccurateRip
Копирование… OK

Трек 5

Имя файла R:\Раздача 77\Karat - 1997 - Balance\05 Lebenszeichen .wav

Длина предзазора 0:00:01.45

Пиковый уровень 99.8 %
Скорость извлечения 4.1 X
Качество трека 99.9 %
CRC теста 5E75B9B5
CRC копии 5E75B9B5
Трек не обнаружен в базе AccurateRip
Копирование… OK

Трек 6

Имя файла R:\Раздача 77\Karat - 1997 - Balance\06 Der Ozean .wav

Длина предзазора 0:00:01.45

Пиковый уровень 99.8 %
Скорость извлечения 4.3 X
Качество трека 99.9 %
CRC теста 6843555B
CRC копии 6843555B
Трек не обнаружен в базе AccurateRip
Копирование… OK

Трек 7

Имя файла R:\Раздача 77\Karat - 1997 - Balance\07 Laß' uns wie … .wav

Длина предзазора 0:00:01.45

Пиковый уровень 99.8 %
Скорость извлечения 6.4 X
Качество трека 100.0 %
CRC теста 7ECBD81D
CRC копии 7ECBD81D
Трек не обнаружен в базе AccurateRip
Копирование… OK

Трек 8

Имя файла R:\Раздача 77\Karat - 1997 - Balance\08 Stumme Schreie .wav

Длина предзазора 0:00:01.45

Пиковый уровень 99.8 %
Скорость извлечения 6.2 X
Качество трека 100.0 %
CRC теста 4BC2EE7E
CRC копии 4BC2EE7E
Трек не обнаружен в базе AccurateRip
Копирование… OK

Трек 9

Имя файла R:\Раздача 77\Karat - 1997 - Balance\09 Unerreichbar tief .wav

Длина предзазора 0:00:01.45

Пиковый уровень 99.8 %
Скорость извлечения 4.6 X
Качество трека 99.9 %
CRC теста A71BADD3
CRC копии A71BADD3
Трек не обнаружен в базе AccurateRip
Копирование… OK

Трек 10

Имя файла R:\Раздача 77\Karat - 1997 - Balance\10 Nur für Geld .wav

Длина предзазора 0:00:01.45

Пиковый уровень 99.8 %
Скорость извлечения 7.0 X
Качество трека 100.0 %
CRC теста FDBAB30B
CRC копии FDBAB30B
Трек не обнаружен в базе AccurateRip
Копирование… OK

Трек 11

Имя файла R:\Раздача 77\Karat - 1997 - Balance\11 Das andere Ufer .wav

Длина предзазора 0:00:01.45

Пиковый уровень 99.8 %
Скорость извлечения 7.0 X
Качество трека 100.0 %
CRC теста 121DD727
CRC копии 121DD727
Трек не обнаружен в базе AccurateRip
Копирование… OK

Трек 12

Имя файла R:\Раздача 77\Karat - 1997 - Balance\12 Notlandung .wav

Длина предзазора 0:00:01.45

Пиковый уровень 99.8 %
Скорость извлечения 5.4 X
Качество трека 99.9 %
CRC теста 7C071EA8
CRC копии 7C071EA8
Трек не обнаружен в базе AccurateRip
Копирование… OK

Трек 13

Имя файла R:\Раздача 77\Karat - 1997 - Balance\13 Es bleibt dabei .wav

Длина предзазора 0:00:01.45

Пиковый уровень 99.8 %
Скорость извлечения 3.1 X
Качество трека 99.8 %
CRC теста 91AE9546
CRC копии 91AE9546
Трек не обнаружен в базе AccurateRip
Копирование… OK

Трек 14

Имя файла R:\Раздача 77\Karat - 1997 - Balance\14 Niemandsland .wav

Длина предзазора 0:00:01.45

Пиковый уровень 99.8 %
Скорость извлечения 7.8 X
Качество трека 100.0 %
CRC теста C38AC1E9
CRC копии C38AC1E9
Трек не обнаружен в базе AccurateRip
Копирование… OK

Трек 15

Имя файла R:\Раздача 77\Karat - 1997 - Balance\15 Kristall .wav

Длина предзазора 0:00:01.45

Пиковый уровень 92.5 %
Скорость извлечения 6.8 X
Качество трека 100.0 %
CRC теста AFC55CF6
CRC копии AFC55CF6
Трек не обнаружен в базе AccurateRip
Копирование… OK

Ни одного трека нет в базе AccurateRip

Ошибок не произошло

Конец отчёта

==== Контрольная сумма отчёта 7F9901CC40E9BC7B9CFD3A221A6BB6EF7AD32D89C72FE97AA10ADAF967C5304D ====

All thanks go to the clustert

More Music in My Blog
Follow My RSS Channel