Subcategories

Rimsky-Korsakov - Kashchey The Immortal - Gergiev

Posted By: Boma
Rimsky-Korsakov - Kashchey The Immortal - Gergiev

Rimsky-Korsakov - Kashchey The Immortal - Gergiev
Exact Audio Copy (EAC) | FLAC | CUE | LOG | COVERS | WinRAR | RS | Released: 1999 | 1 CD 280 MB

Kashchey the Deathless (Russian: Кащей бессмертный, Kashchey bessmertnïy), aka Kashchey the Immortal, is a one-act opera in three scenes (styled a "little autumnal fairy tale") by Nikolay Rimsky-Korsakov. The libretto was written by the composer, and is based on a Russian fairy tale about Koschei the Deathless, an evil, ugly old wizard, who menaced principally young women. A similar fairy tale was also used by Igor Stravinsky (Rimsky-Korsakov's pupil) and Vaslav Nijinsky to create their iconic ballet, The Firebird. The opera was composed during 1901-1902 and the work was completed in 1902. It was first performed the same year in Moscow.
Time: Unspecified Place: Kashchey's realm in the thrice-tenth kingdom, a far off place (beyond thrice-nine lands) in Russian fairy tales. The beautiful Princess Tsarevna Nenaglyadnaya Krasa is imprisoned by the evil wizard Kashchey the Deathless in his gloomy kingdom, longing for her beloved Prince Ivan-Korolevich. She is upset when looking into the magic mirror, she sees her bridegroom together with Kashcheyevna, the daughter of Kashchey. Kashchey, who also glances into the mirror, is afraid that Ivan could bring him death – he hid his death in the tear of his daughter, whose heart is hard and cold. Many knights were ruined by her beauty, and no one could see her tears. Kashchey breaks the mirror into pieces, and sends Storm-hero Burya-Bogatyr to Kashcheyevna to ask how safely she keeps his death. Kashcheyevna prepares a magic potion to lull the Prince to sleep and force him to forget his beautiful Princess. When Ivan-Korolevich enters, she gives him the potion to drink. Burya-Bogatyr suddenly appears, and his wind scatters Kashcheyevna’s charms. Following Burya-Bogatyr, Ivan Korolevich leaves for his dear bride. The Princess sings a lullaby to Kashchey. Ivan-Korolevich arrives. He frees his fiancé, but Kashcheyevna pleads with Ivan to remain with her, since he has awakened love in her severe heart. In an impulse of compassion, the Princess kisses Kashcheyevna, and she begins to cry. Invisible voices announce the death of Kashchey. Kashcheyevna is turned into a weeping willow. But Burya-Bogatyr opens the gates to show the lovers the way out of the gloomy kingdom, and into the world of light, Spring, and love.
Exact Audio Copy V0.99 prebeta 5 from 4. May 2009

Отчёт EAC об извлечении, выполненном 23. мая 2009, 6:22

Rimsky-Korsakov, Nikolai / Kastcheп l'Immortel ( 1901)

Дисковод: HL-DT-STDVD-RAM GSA-H55N Adapter: 4 ID: 0

Режим чтения : Достоверность
Использование точного потока : Да
Отключение кэша аудио : Нет
Использование указателей C2 : Нет

Коррекция смещения при чтении : 102
Способность читать области Lead-in и Lead-out : Нет
Заполнение пропущенных сэмплов тишиной : Да
Удаление блоков с тишиной в начале и конце : Нет
При вычислениях CRC использовались нулевые сэмплы : Нет
Интерфейс : Встроенный Win32-интерфейс для Win NT/2000

Выходной формат : Пользовательский кодировщик
Выбранный битрейт : 1024 kBit/s
Качество : Высокий
Добавление ID3-тэга : Нет
Утилита сжатия : E:\Program Files\FLAC\flac.exe
Дополнительные параметры : -6 -V -T "ARTIST=%a" -T "TITLE=%t" -T "ALBUM=%g" -T "DATE=%y" -T "TRACKNUMBER=%n" -T "GENRE=%m" -T "COMMENT=%e" %s -o %d


TOC извлечённого CD

Трек | Старт | Длительность | Начальный сектор | Конечный сектор
––––––––––––––––––––––––––––––––––-
1 | 0:00.32 | 7:31.00 | 32 | 33856
2 | 7:31.32 | 5:25.13 | 33857 | 58244
3 | 12:56.45 | 4:11.42 | 58245 | 77111
4 | 17:08.12 | 7:19.58 | 77112 | 110094
5 | 24:27.70 | 6:07.37 | 110095 | 137656
6 | 30:35.32 | 4:01.00 | 137657 | 155731
7 | 34:36.32 | 4:51.45 | 155732 | 177601
8 | 39:28.02 | 5:33.05 | 177602 | 202581
9 | 45:01.07 | 4:16.60 | 202582 | 221841
10 | 49:17.67 | 7:51.03 | 221842 | 257169
11 | 57:08.70 | 4:13.00 | 257170 | 276144
12 | 61:21.70 | 2:31.37 | 276145 | 287506


Характеристики диапазона извлечения и сообщения об ошибках

Выбранный диапазон

Имя файла E:\Rimsky-Korsakov, Nikolai - Kastcheп l'Immortel ( 1901).wav

Пиковый уровень 100.0 %
Качество диапазона 99.9 %
CRC копии 0FFF6EE8
Копирование… OK

Ошибок не произошло


AccurateRip: сводка

Трек 1 нет в базе данных
Трек 2 нет в базе данных
Трек 3 нет в базе данных
Трек 4 нет в базе данных
Трек 5 нет в базе данных
Трек 6 нет в базе данных
Трек 7 нет в базе данных
Трек 8 нет в базе данных
Трек 9 нет в базе данных
Трек 10 нет в базе данных
Трек 11 нет в базе данных
Трек 12 нет в базе данных

Ни одного трека нет в базе AccurateRip

Конец отчёта

Recorded 1994, released 1999
Valery Gergiev (conductor), Kirov Opera & Orchestra, Marina Shaguch (Tsarevna), Konstantin Pluzhnikov (Kashchey), Aleksandr Morozov (Storm-Bogatïr), Aleksandr Gergalov (Ivan Korolevich), Larisa Dyadkova (Kashcheyevna) Philips 446 704-2