Tags
Language
Tags

Keith Jarrett - Munich 2016 (2CD) (2019)

Posted By:
Keith Jarrett - Munich 2016 (2CD) (2019)

Keith Jarrett - Munich 2016 (2CD) (2019)
EAC Rip | FLAC (tracks+.cue, log) ~ 153.61 Mb + 150.85 Mb | 01:33:33 | Covers
Post-Bop, Contemporary Jazz | Label: ECM Records - ECM 2667/68

A solo concert from Keith Jarrett - recorded at Munich’s Philharmonie on July 16, 2016, on the last night of a European tour - finds the great improvising pianist at a peak of invention. Creating a spontaneous suite of forms in the moment with the assurance of a master builder – interspersing touches of the blues and folksong lyricism between pieces of polyrhythmic and harmonic complexity - he delivers one of his very finest performances. An attentive and appreciative audience hangs on every note, every nuance, and is rewarded with some tender encores including a magical version of “It’s A Lonesome Old Town”.



CD1 {00:44:48}
01. Part I (Jarrett) - 13:58
02. Part II (Jarrett) - 7:23
03. Part III (Jarrett) - 6:15
04. Part IV (Jarrett) - 4:15
05. Part V (Jarrett) - 4:29
06. Part VI (Jarrett) - 6:07
07. Part VII (Jarrett) - 2:21

CD2 {00:48:45}
01. Part VIII (Jarrett) - 8:08
02. Part IX (Jarrett) - 3:27
03. Part X (Jarrett) - 7:44
04. Part XI (Jarrett) - 9:01
05. Part XII (Jarrett) - 3:19
06. Answer Me, My Love (Winkler-Rauch) - 4:40
07. It's a Lonesome Old Town (Tobias-Kisco) - 5:43
08. Somewhere over the Rainbow (Arlen-Harburg) - 6:43

Keith Jarrett - piano

Recorded live at Philharmonic Hall, Munich on July 16, 2016.

Keith Jarrett - Munich 2016 (2CD) (2019)

Exact Audio Copy V1.3 from 2. September 2016

EAC extraction logfile from 9. December 2019, 17:18

Keith Jarrett / Munich 2016

Used drive : HL-DT-STDVD+-RW GHB0N Adapter: 1 ID: 0

Read mode : Secure
Utilize accurate stream : Yes
Defeat audio cache : Yes
Make use of C2 pointers : No

Read offset correction : 6
Overread into Lead-In and Lead-Out : No
Fill up missing offset samples with silence : Yes
Delete leading and trailing silent blocks : No
Null samples used in CRC calculations : Yes
Used interface : Native Win32 interface for Win NT & 2000
Gap handling : Appended to previous track

Used output format : User Defined Encoder
Selected bitrate : 768 kBit/s
Quality : High
Add ID3 tag : No
Command line compressor : C:\Program Files (x86)\Exact Audio Copy\FLAC\FLAC.EXE
Additional command line options : -8 -V -T "ARTIST=%artist%" -T "TITLE=%title%" -T "ALBUM=%albumtitle%" -T "DATE=%year%" -T "TRACKNUMBER=%tracknr%" -T "GENRE=%genre%" -T "PERFORMER=%albuminterpret%" -T "COMPOSER=%composer%" %haslyrics%–tag-from-file=LYRICS="%lyricsfile%"%haslyrics% -T "ALBUMARTIST=%albumartist%" -T "DISCNUMBER=%cdnumber%" -T "TOTALDISCS=%totalcds%" -T "TOTALTRACKS=%numtracks%" -T "COMMENT=%comment%" %source% -o %dest%


TOC of the extracted CD

Track | Start | Length | Start sector | End sector
––––––––––––––––––––––––––––-
1 | 0:00.00 | 13:57.58 | 0 | 62832
2 | 13:57.58 | 7:23.02 | 62833 | 96059
3 | 21:20.60 | 6:15.12 | 96060 | 124196
4 | 27:35.72 | 4:14.73 | 124197 | 143319
5 | 31:50.70 | 4:28.65 | 143320 | 163484
6 | 36:19.60 | 6:07.32 | 163485 | 191041
7 | 42:27.17 | 2:20.56 | 191042 | 201597


Track 1

Filename C:\EAC\Keith Jarrett - Munich 2016 (2019) [FLAC]\Disc 1\01 - Part I.wav

Pre-gap length 0:00:02.00

Peak level 70.6 %
Extraction speed 1.3 X
Track quality 100.0 %
Test CRC 7CA2E69B
Copy CRC 7CA2E69B
Accurately ripped (confidence 2) [8D953E96] (AR v2)
Copy OK

Track 2

Filename C:\EAC\Keith Jarrett - Munich 2016 (2019) [FLAC]\Disc 1\02 - Part II.wav

Peak level 45.2 %
Extraction speed 1.5 X
Track quality 100.0 %
Test CRC 517FC195
Copy CRC 517FC195
Accurately ripped (confidence 2) [3B9B639A] (AR v2)
Copy OK

Track 3

Filename C:\EAC\Keith Jarrett - Munich 2016 (2019) [FLAC]\Disc 1\03 - Part III.wav

Peak level 83.5 %
Extraction speed 1.5 X
Track quality 99.9 %
Test CRC 7963F73D
Copy CRC 7963F73D
Accurately ripped (confidence 2) [875B4B20] (AR v2)
Copy OK

Track 4

Filename C:\EAC\Keith Jarrett - Munich 2016 (2019) [FLAC]\Disc 1\04 - Part IV.wav

Peak level 67.8 %
Extraction speed 1.5 X
Track quality 99.9 %
Test CRC 12E47DB4
Copy CRC 12E47DB4
Accurately ripped (confidence 2) [D6CA8E4D] (AR v2)
Copy OK

Track 5

Filename C:\EAC\Keith Jarrett - Munich 2016 (2019) [FLAC]\Disc 1\05 - Part V.wav

Peak level 46.3 %
Extraction speed 1.8 X
Track quality 100.0 %
Test CRC B9EE7C19
Copy CRC B9EE7C19
Accurately ripped (confidence 2) [F55895B1] (AR v2)
Copy OK

Track 6

Filename C:\EAC\Keith Jarrett - Munich 2016 (2019) [FLAC]\Disc 1\06 - Part VI.wav

Peak level 48.6 %
Extraction speed 1.9 X
Track quality 100.0 %
Test CRC 93C3FB3E
Copy CRC 93C3FB3E
Accurately ripped (confidence 2) [EC079CE4] (AR v2)
Copy OK

Track 7

Filename C:\EAC\Keith Jarrett - Munich 2016 (2019) [FLAC]\Disc 1\07 - Part VII.wav

Peak level 63.9 %
Extraction speed 1.4 X
Track quality 99.9 %
Test CRC 3B9E4AE2
Copy CRC 3B9E4AE2
Accurately ripped (confidence 2) [75DBB2AE] (AR v2)
Copy OK


All tracks accurately ripped

No errors occurred

End of status report

–– CUETools DB Plugin V2.1.6

[CTDB TOCID: QNCYE4Dag_HJioqO9AMSq.5l6Rk-] found
Submit result: QNCYE4Dag_HJioqO9AMSq.5l6Rk- has been confirmed
Track | CTDB Status
1 | (5/5) Accurately ripped
2 | (5/5) Accurately ripped
3 | (5/5) Accurately ripped
4 | (5/5) Accurately ripped
5 | (5/5) Accurately ripped
6 | (5/5) Accurately ripped
7 | (5/5) Accurately ripped


==== Log checksum BC4B635D76D0F3B06BBF3BF8FB1B1FA448F2450FF3C357AAD8A1D67CB678B32F ====

Exact Audio Copy V1.3 from 2. September 2016

EAC extraction logfile from 9. December 2019, 18:23

Keith Jarrett / Munich 2016

Used drive : HL-DT-STDVD+-RW GHB0N Adapter: 1 ID: 0

Read mode : Secure
Utilize accurate stream : Yes
Defeat audio cache : Yes
Make use of C2 pointers : No

Read offset correction : 6
Overread into Lead-In and Lead-Out : No
Fill up missing offset samples with silence : Yes
Delete leading and trailing silent blocks : No
Null samples used in CRC calculations : Yes
Used interface : Native Win32 interface for Win NT & 2000
Gap handling : Appended to previous track

Used output format : User Defined Encoder
Selected bitrate : 768 kBit/s
Quality : High
Add ID3 tag : No
Command line compressor : C:\Program Files (x86)\Exact Audio Copy\FLAC\FLAC.EXE
Additional command line options : -8 -V -T "ARTIST=%artist%" -T "TITLE=%title%" -T "ALBUM=%albumtitle%" -T "DATE=%year%" -T "TRACKNUMBER=%tracknr%" -T "GENRE=%genre%" -T "PERFORMER=%albuminterpret%" -T "COMPOSER=%composer%" %haslyrics%–tag-from-file=LYRICS="%lyricsfile%"%haslyrics% -T "ALBUMARTIST=%albumartist%" -T "DISCNUMBER=%cdnumber%" -T "TOTALDISCS=%totalcds%" -T "TOTALTRACKS=%numtracks%" -T "COMMENT=%comment%" %source% -o %dest%


TOC of the extracted CD

Track | Start | Length | Start sector | End sector
––––––––––––––––––––––––––––-
1 | 0:00.00 | 8:07.40 | 0 | 36564
2 | 8:07.40 | 3:26.42 | 36565 | 52056
3 | 11:34.07 | 7:43.68 | 52057 | 86849
4 | 19:18.00 | 9:01.19 | 86850 | 127443
5 | 28:19.19 | 3:19.12 | 127444 | 142380
6 | 31:38.31 | 4:39.58 | 142381 | 163363
7 | 36:18.14 | 5:42.57 | 163364 | 189070
8 | 42:00.71 | 6:43.26 | 189071 | 219321


Track 1

Filename C:\EAC\Keith Jarrett - Munich 2016 (2019) [FLAC]\Disc 2\01 - Part VIII.wav

Pre-gap length 0:00:02.00

Peak level 53.1 %
Extraction speed 1.1 X
Track quality 100.0 %
Test CRC B35B3FEA
Copy CRC B35B3FEA
Accurately ripped (confidence 2) [FD20750B] (AR v2)
Copy OK

Track 2

Filename C:\EAC\Keith Jarrett - Munich 2016 (2019) [FLAC]\Disc 2\02 - Part IX.wav

Peak level 53.9 %
Extraction speed 1.2 X
Track quality 100.0 %
Test CRC 63BA5C74
Copy CRC 63BA5C74
Accurately ripped (confidence 2) [D869E1A3] (AR v2)
Copy OK

Track 3

Filename C:\EAC\Keith Jarrett - Munich 2016 (2019) [FLAC]\Disc 2\03 - Part X.wav

Pre-gap length 0:00:00.01

Peak level 61.7 %
Extraction speed 1.5 X
Track quality 100.0 %
Test CRC 3CDF51CC
Copy CRC 3CDF51CC
Accurately ripped (confidence 2) [6963DDC5] (AR v2)
Copy OK

Track 4

Filename C:\EAC\Keith Jarrett - Munich 2016 (2019) [FLAC]\Disc 2\04 - Part XI.wav

Pre-gap length 0:00:00.01

Peak level 85.4 %
Extraction speed 1.7 X
Track quality 100.0 %
Test CRC 4DEB55F0
Copy CRC 4DEB55F0
Accurately ripped (confidence 2) [95B57060] (AR v2)
Copy OK

Track 5

Filename C:\EAC\Keith Jarrett - Munich 2016 (2019) [FLAC]\Disc 2\05 - Part XII.wav

Pre-gap length 0:00:00.01

Peak level 72.6 %
Extraction speed 1.6 X
Track quality 100.0 %
Test CRC 6F2F642F
Copy CRC 6F2F642F
Accurately ripped (confidence 2) [9291B9D2] (AR v2)
Copy OK

Track 6

Filename C:\EAC\Keith Jarrett - Munich 2016 (2019) [FLAC]\Disc 2\06 - Answer Me, My Love.wav

Pre-gap length 0:00:00.01

Peak level 63.5 %
Extraction speed 1.8 X
Track quality 100.0 %
Test CRC 4F10768D
Copy CRC 4F10768D
Accurately ripped (confidence 2) [923AE87E] (AR v2)
Copy OK

Track 7

Filename C:\EAC\Keith Jarrett - Munich 2016 (2019) [FLAC]\Disc 2\07 - It's a Lonesome Old Town.wav

Pre-gap length 0:00:00.01

Peak level 55.8 %
Extraction speed 1.9 X
Track quality 100.0 %
Test CRC 65AFF997
Copy CRC 65AFF997
Accurately ripped (confidence 2) [C27CA0FD] (AR v2)
Copy OK

Track 8

Filename C:\EAC\Keith Jarrett - Munich 2016 (2019) [FLAC]\Disc 2\08 - Somewhere Over the Rainbow.wav

Pre-gap length 0:00:00.01

Peak level 73.1 %
Extraction speed 2.1 X
Track quality 100.0 %
Test CRC 6432AE70
Copy CRC 6432AE70
Accurately ripped (confidence 2) [A95FE2D2] (AR v2)
Copy OK


All tracks accurately ripped

No errors occurred

End of status report

–– CUETools DB Plugin V2.1.6

[CTDB TOCID: PqMG.qmg1WKaaVrf_M1I3euP0i8-] found
Submit result: PqMG.qmg1WKaaVrf_M1I3euP0i8- has been confirmed
Track | CTDB Status
1 | (5/5) Accurately ripped
2 | (5/5) Accurately ripped
3 | (5/5) Accurately ripped
4 | (5/5) Accurately ripped
5 | (5/5) Accurately ripped
6 | (5/5) Accurately ripped
7 | (5/5) Accurately ripped
8 | (5/5) Accurately ripped


==== Log checksum CA5F6CD1A315F66A5D0A3EDBCC884D12BB240382BBF22F335C1DD612B9FC5793 ====

All thanks go to the gravy63

More Music in My Blog
Follow My RSS Channel