Subcategories
Tags
Language
Tags

The Keith Emerson Trio - The Keith Emerson Trio (2015) {Unissued 1963 rec}

Posted By: ruskaval
The Keith Emerson Trio - The Keith Emerson Trio (2015) {Unissued 1963 rec}

The Keith Emerson Trio - The Keith Emerson Trio (2015) {Unissued 1963 rec}
XLD rip (secure mode) | FLAC (tracks)+CUE+LOG -> 113 Mb | MP3 @320 -> 60 Mb
Full Artwork @ 300 dpi (jpg) -> 16 Mb | 5% repair rar
© 1963, 2015 Emersongs Ltd. / Cherry Red | KE001
Jazz / Bop / Cool / Piano Trio / Jazz Blues

Long before Keith Emerson was a known name for his involvement with The Nice and with Emerson, Lake & Palmer (ELP), young Keith Merson had a Jazz Trio. According to him, seeing himself as a Jazz musician meant that he was "cool", but still unable to get a girlfriend though. The year is 1963 and the trio reharses at his mother's council house living room in Woking. They manage to get the money to record and cut 4 acetates, one was given to each member of the band and there was one spare copy used to try to get gigs. Fast forward to 2015 and this 4th. copy shows up at a boot sale. Upon hearing about the discovery, Keith Emerson agreed upon the release of the recordings. These recordings have never been for sale on CD before and have been lovingly restored. This release has the full approval of Keith Emerson.
The Keith Emerson Trio - The Keith Emerson Trio (2015) {Unissued 1963 rec}


More INFO

Personnel:
Keith Emerson - piano
Godfrey Sheppard - bass
David Keene - drums

The Keith Emerson Trio - The Keith Emerson Trio (2015) {Unissued 1963 rec}


Tracklist:
01 - You Say You Care
02 - There Will Never Be Another You
03 - Teenies Blues
04 - Winkle Picker Stamp
05 - 56 Blues
06 - You Came a Long Way From Saint Louis
07 - Soul Station

X Lossless Decoder version 20141129 (148.1)

XLD extraction logfile from 2015-12-16 18:48:05 +0000

The Keith Emerson Trio / The Keith Emerson Trio

Used drive : HL-DT-ST DVDRW GS23N (revision SB11)
Media type : Pressed CD

Ripper mode : XLD Secure Ripper
Disable audio cache : OK for the drive with a cache less than 1375KiB
Make use of C2 pointers : NO
Read offset correction : 667
Max retry count : 100
Gap status : Analyzed, Appended (except HTOA)

TOC of the extracted CD
Track | Start | Length | Start sector | End sector
––––––––––––––––––––––––––––-
1 | 00:00:00 | 04:51:12 | 0 | 21836
2 | 04:51:12 | 03:51:26 | 21837 | 39187
3 | 08:42:38 | 03:21:25 | 39188 | 54287
4 | 12:03:63 | 02:31:24 | 54288 | 65636
5 | 14:35:12 | 03:06:08 | 65637 | 79594
6 | 17:41:20 | 02:06:48 | 79595 | 89092
7 | 19:47:68 | 04:54:65 | 89093 | 111207

AccurateRip Summary
Disc not found in AccurateRip DB.

All Tracks
Album gain : -5.04 dB
Peak : 0.988647
Statistics
Read error : 0
Jitter error (maybe fixed) : 0
Retry sector count : 0
Damaged sector count : 0

Track 01
Filename : /Volumes/rip/The Keith Emerson Trio/01 - You Say You Care.flac
Pre-gap length : 00:02:00

Track gain : -5.06 dB
Peak : 0.988617
CRC32 hash (test run) : 29F39BD7
CRC32 hash : 29F39BD7
CRC32 hash (skip zero) : 6E7868F8
AccurateRip v1 signature : 70A4C88A
AccurateRip v2 signature : 4E5FBC7C
->Track not present in AccurateRip database.
Statistics
Read error : 0
Jitter error (maybe fixed) : 0
Retry sector count : 0
Damaged sector count : 0

Track 02
Filename : /Volumes/rip/The Keith Emerson Trio/02 - There Will Never Be Another You.flac

Track gain : -5.15 dB
Peak : 0.988617
CRC32 hash (test run) : 46FFCCDA
CRC32 hash : 46FFCCDA
CRC32 hash (skip zero) : D404C909
AccurateRip v1 signature : 74552C13
AccurateRip v2 signature : E0C940F1
->Track not present in AccurateRip database.
Statistics
Read error : 0
Jitter error (maybe fixed) : 0
Retry sector count : 0
Damaged sector count : 0

Track 03
Filename : /Volumes/rip/The Keith Emerson Trio/03 - Teenies Blues.flac

Track gain : -4.94 dB
Peak : 0.988617
CRC32 hash (test run) : C177B183
CRC32 hash : C177B183
CRC32 hash (skip zero) : DF1C6CC2
AccurateRip v1 signature : B2AD71AA
AccurateRip v2 signature : 932F4803
->Track not present in AccurateRip database.
Statistics
Read error : 0
Jitter error (maybe fixed) : 0
Retry sector count : 0
Damaged sector count : 0

Track 04
Filename : /Volumes/rip/The Keith Emerson Trio/04 - Winkle Picker Stamp.flac

Track gain : -4.93 dB
Peak : 0.988647
CRC32 hash (test run) : 9597CA0B
CRC32 hash : 9597CA0B
CRC32 hash (skip zero) : 388A3FCD
AccurateRip v1 signature : A5D1E683
AccurateRip v2 signature : 81254E33
->Track not present in AccurateRip database.
Statistics
Read error : 0
Jitter error (maybe fixed) : 0
Retry sector count : 0
Damaged sector count : 0

Track 05
Filename : /Volumes/rip/The Keith Emerson Trio/05 - 56 Blues.flac

Track gain : -5.25 dB
Peak : 0.988647
CRC32 hash (test run) : 9E6AFC6B
CRC32 hash : 9E6AFC6B
CRC32 hash (skip zero) : 566C5B05
AccurateRip v1 signature : 194F8878
AccurateRip v2 signature : BAFFDCB1
->Track not present in AccurateRip database.
Statistics
Read error : 0
Jitter error (maybe fixed) : 0
Retry sector count : 0
Damaged sector count : 0

Track 06
Filename : /Volumes/rip/The Keith Emerson Trio/06 - You Came a Long Way From Saint Louis.flac

Track gain : -6.13 dB
Peak : 0.988617
CRC32 hash (test run) : DEFDF6BA
CRC32 hash : DEFDF6BA
CRC32 hash (skip zero) : 6BF837A6
AccurateRip v1 signature : A77C0F2C
AccurateRip v2 signature : CCA93081
->Track not present in AccurateRip database.
Statistics
Read error : 0
Jitter error (maybe fixed) : 0
Retry sector count : 0
Damaged sector count : 0

Track 07
Filename : /Volumes/rip/The Keith Emerson Trio/07 - Soul Station.flac

Track gain : -3.51 dB
Peak : 0.988586
CRC32 hash (test run) : 062BD6BC
CRC32 hash : 062BD6BC
CRC32 hash (skip zero) : 99EE6AEC
AccurateRip v1 signature : 9C5D71CF
AccurateRip v2 signature : E87C7ACA
->Track not present in AccurateRip database.
Statistics
Read error : 0
Jitter error (maybe fixed) : 0
Retry sector count : 0
Damaged sector count : 0

No errors occurred

End of status report

––-BEGIN XLD SIGNATURE––-
_QadH00eH9cNVqAjTOYvpKysdCxT.aO9HfFA7nXcCMX9Ic53fHbISemCVVZLOQXOyc9V7m7hYkLcghFJqygmZSuUMNZvI23Tx.oKyge
––-END XLD SIGNATURE––-


The Keith Emerson Trio - The Keith Emerson Trio (2015) {Unissued 1963 rec}



===