Tags
Language
Tags

Keith Jarrett - Book Of Ways (1987) {2CD ECM 1344~45}

Posted By: ruskaval
Keith Jarrett - Book Of Ways (1987) {2CD ECM 1344~45}

Keith Jarrett - Book Of Ways (1987) {2CD ECM 1344~45}
XLD rip (secure mode) | FLAC+CUE+LOG -> 418 Mb | MP3 @320 -> 234 Mb
Full Artwork @ 300 dpi (png) -> 12 Mb | 5% repair rar
© 1987 ECM Records | ECM 1344/45
Jazz / Classical / Modern Post Bebop / Neo-Classical / Modern Creative / Clavichord

Thanks in no small part to ECM founder Manfred Eicher's patience and indulgence, here we have another of Keith Jarrett's myriad "special projects" – two CDs of music recorded on a clavichord. This carries Jarrett's anti-electric crusade to a real extreme, the clavichord being a keyboard from J.S. Bach's day, obsolete for over 200 years. The instrument produces a gentle pinging sound like a harpsichord crossed with a zither (the amplified Hohner Clavinet is the closest sound in our time), and Jarrett occasionally tries to stretch the instrument's limited possibilities, hammering percussively on the close-miked strings. Yet for the most part, Jarrett reins in his world-class technique in order to make unpretentiously minimal music on this ancient keyboard. Some of it sounds like folk music, some like new age contemplation, there are convincing neo-baroque musings, and a few of these untitled though numbered selections kick into a higher gear. Sometimes this music is charming…But hey, they also laughed when Keith started putting out massive sets of solo piano…

Keith Jarrett - Book Of Ways (1987) {2CD ECM 1344~45}


More Info

Personnel: Keith Jarrett - clavichord

tracklist:
CD1

01. Book Of Ways (The Feeling Of Strings): No.1
02. Book Of Ways (The Feeling Of Strings): No.2
03. Book Of Ways (The Feeling Of Strings): No.3
04. Book Of Ways (The Feeling Of Strings): No.4
05. Book Of Ways (The Feeling Of Strings): No.5
06. Book Of Ways (The Feeling Of Strings): No.6
07. Book Of Ways (The Feeling Of Strings): No.7
08. Book Of Ways (The Feeling Of Strings): No.8
09. Book Of Ways (The Feeling Of Strings): No.9
10. Book Of Ways (The Feeling Of Strings): No.10

Keith Jarrett - Book Of Ways (1987) {2CD ECM 1344~45}


CD2
01. Book Of Ways (The Feeling Of Strings): No.11
02. Book Of Ways (The Feeling Of Strings): No.12
03. Book Of Ways (The Feeling Of Strings): No.13
04. Book Of Ways (The Feeling Of Strings): No.14
05. Book Of Ways (The Feeling Of Strings): No.15
06. Book Of Ways (The Feeling Of Strings): No.16
07. Book Of Ways (The Feeling Of Strings): No.17
08. Book Of Ways (The Feeling Of Strings): No.18
09. Book Of Ways (The Feeling Of Strings): No.19

Keith Jarrett - Book Of Ways (1987) {2CD ECM 1344~45}


X Lossless Decoder version 20120908 (141.1)

XLD extraction logfile from 2012-09-25 07:06:07 +1000

Keith Jarrett / Keith Jarrett - Book Of Ways (1987) [FLAC] CD1

Used drive : OPTIARC DVD RW AD-5680H (revision 3AHB)

Ripper mode : XLD Secure Ripper
Disable audio cache : OK for the drive with a cache less than 1375KiB
Make use of C2 pointers : NO
Read offset correction : 48
Max retry count : 100
Gap status : Analyzed, Appended (except HTOA)

TOC of the extracted CD
Track | Start | Length | Start sector | End sector
––––––––––––––––––––––––––––-
1 | 00:00:32 | 09:17:05 | 32 | 41811
2 | 09:17:37 | 03:46:73 | 41812 | 58834
3 | 13:04:35 | 04:12:00 | 58835 | 77734
4 | 17:16:35 | 05:01:00 | 77735 | 100309
5 | 22:17:35 | 03:07:40 | 100310 | 114374
6 | 25:25:00 | 04:16:00 | 114375 | 133574
7 | 29:41:00 | 03:34:00 | 133575 | 149624
8 | 33:15:00 | 05:43:00 | 149625 | 175349
9 | 38:58:00 | 05:11:00 | 175350 | 198674
10 | 44:09:00 | 03:36:37 | 198675 | 214911

AccurateRip Summary (DiscID: 00134e54-0095d6d2-990b310a)
Track 01 : OK (v2, confidence 1/1)
Track 02 : OK (v2, confidence 1/1)
Track 03 : OK (v2, confidence 1/1)
Track 04 : OK (v2, confidence 1/1)
Track 05 : OK (v2, confidence 1/1)
Track 06 : OK (v2, confidence 1/1)
Track 07 : OK (v2, confidence 1/1)
Track 08 : OK (v2, confidence 1/1)
Track 09 : OK (v2, confidence 1/1)
Track 10 : NG (total 1 submission)
->9 tracks accurately ripped, 1 track not

All Tracks
Album gain : 6.00 dB
Peak : 0.817932
Statistics
Read error : 0
Jitter error (maybe fixed) : 0
Retry sector count : 0
Damaged sector count : 0

Track 01
Filename : /Volumes/RIPs/Keith Jarrett - Book Of Ways (1987) [FLAC]/CD1/01 - Book Of Ways, The Feeling Of Strings, No. 1.flac
Pre-gap length : 00:02:32

Track gain : 7.22 dB
Peak : 0.369385
CRC32 hash (test run) : F07D4882
CRC32 hash : F07D4882
CRC32 hash (skip zero) : 1EEC071F
AccurateRip v1 signature : 4DA516E0
AccurateRip v2 signature : 4F704A39
->Accurately ripped (v2, confidence 1/1)
Statistics
Read error : 0
Jitter error (maybe fixed) : 0
Retry sector count : 0
Damaged sector count : 0

Track 02
Filename : /Volumes/RIPs/Keith Jarrett - Book Of Ways (1987) [FLAC]/CD1/02 - Book Of Ways, The Feeling Of Strings, No. 2.flac
Pre-gap length : 00:08:27

Track gain : 12.78 dB
Peak : 0.170624
CRC32 hash (test run) : 9156AFAF
CRC32 hash : 9156AFAF
CRC32 hash (skip zero) : BC423E38
AccurateRip v1 signature : 8D45BE6D
AccurateRip v2 signature : 3AEC8820
->Accurately ripped (v2, confidence 1/1)
Statistics
Read error : 0
Jitter error (maybe fixed) : 0
Retry sector count : 0
Damaged sector count : 0

Track 03
Filename : /Volumes/RIPs/Keith Jarrett - Book Of Ways (1987) [FLAC]/CD1/03 - Book Of Ways, The Feeling Of Strings, No. 3.flac
Pre-gap length : 00:05:70

Track gain : 12.19 dB
Peak : 0.191711
CRC32 hash (test run) : 51E1CF3E
CRC32 hash : 51E1CF3E
CRC32 hash (skip zero) : 554BEBC5
AccurateRip v1 signature : E2E9D739
AccurateRip v2 signature : AB57FED0
->Accurately ripped (v2, confidence 1/1)
Statistics
Read error : 0
Jitter error (maybe fixed) : 0
Retry sector count : 0
Damaged sector count : 0

Track 04
Filename : /Volumes/RIPs/Keith Jarrett - Book Of Ways (1987) [FLAC]/CD1/04 - Book Of Ways, The Feeling Of Strings, No. 4.flac
Pre-gap length : 00:07:10

Track gain : 4.85 dB
Peak : 0.468079
CRC32 hash (test run) : AD173724
CRC32 hash : AD173724
CRC32 hash (skip zero) : AE349DEF
AccurateRip v1 signature : 4AD48D5E
AccurateRip v2 signature : 0E78AD37
->Accurately ripped (v2, confidence 1/1)
Statistics
Read error : 0
Jitter error (maybe fixed) : 0
Retry sector count : 0
Damaged sector count : 0

Track 05
Filename : /Volumes/RIPs/Keith Jarrett - Book Of Ways (1987) [FLAC]/CD1/05 - Book Of Ways, The Feeling Of Strings, No. 5.flac
Pre-gap length : 00:06:03

Track gain : 11.46 dB
Peak : 0.246857
CRC32 hash (test run) : 61782CC9
CRC32 hash : 61782CC9
CRC32 hash (skip zero) : 239C145F
AccurateRip v1 signature : 52F94A16
AccurateRip v2 signature : 971D427D
->Accurately ripped (v2, confidence 1/1)
Statistics
Read error : 0
Jitter error (maybe fixed) : 0
Retry sector count : 0
Damaged sector count : 0

Track 06
Filename : /Volumes/RIPs/Keith Jarrett - Book Of Ways (1987) [FLAC]/CD1/06 - Book Of Ways, The Feeling Of Strings, No. 6.flac
Pre-gap length : 00:07:70

Track gain : 4.96 dB
Peak : 0.421204
CRC32 hash (test run) : 065C8632
CRC32 hash : 065C8632
CRC32 hash (skip zero) : 5AC02D83
AccurateRip v1 signature : 6A84622E
AccurateRip v2 signature : A6DE55E7
->Accurately ripped (v2, confidence 1/1)
Statistics
Read error : 0
Jitter error (maybe fixed) : 0
Retry sector count : 0
Damaged sector count : 0

Track 07
Filename : /Volumes/RIPs/Keith Jarrett - Book Of Ways (1987) [FLAC]/CD1/07 - Book Of Ways, The Feeling Of Strings, No. 7.flac
Pre-gap length : 00:06:35

Track gain : 5.97 dB
Peak : 0.378448
CRC32 hash (test run) : A7848659
CRC32 hash : A7848659
CRC32 hash (skip zero) : 51B9C31A
AccurateRip v1 signature : CB9FC2F8
AccurateRip v2 signature : 689F81D2
->Accurately ripped (v2, confidence 1/1)
Statistics
Read error : 0
Jitter error (maybe fixed) : 0
Retry sector count : 0
Damaged sector count : 0

Track 08
Filename : /Volumes/RIPs/Keith Jarrett - Book Of Ways (1987) [FLAC]/CD1/08 - Book Of Ways, The Feeling Of Strings, No. 8.flac
Pre-gap length : 00:06:03

Track gain : 3.99 dB
Peak : 0.817932
CRC32 hash (test run) : C9A8C0C1
CRC32 hash : C9A8C0C1
CRC32 hash (skip zero) : F1FD907B
AccurateRip v1 signature : 658CB79F
AccurateRip v2 signature : 5C2B6127
->Accurately ripped (v2, confidence 1/1)
Statistics
Read error : 0
Jitter error (maybe fixed) : 0
Retry sector count : 0
Damaged sector count : 0

Track 09
Filename : /Volumes/RIPs/Keith Jarrett - Book Of Ways (1987) [FLAC]/CD1/09 - Book Of Ways, The Feeling Of Strings, No. 9.flac
Pre-gap length : 00:06:63

Track gain : 10.78 dB
Peak : 0.234589
CRC32 hash (test run) : D5F06EEC
CRC32 hash : D5F06EEC
CRC32 hash (skip zero) : B86762E9
AccurateRip v1 signature : 831730CB
AccurateRip v2 signature : F9489D29
->Accurately ripped (v2, confidence 1/1)
Statistics
Read error : 0
Jitter error (maybe fixed) : 0
Retry sector count : 0
Damaged sector count : 0

Track 10
Filename : /Volumes/RIPs/Keith Jarrett - Book Of Ways (1987) [FLAC]/CD1/10 - Book Of Ways, The Feeling Of Strings, No. 10.flac
Pre-gap length : 00:07:13

Track gain : 3.59 dB
Peak : 0.585052
CRC32 hash (test run) : 17F6057E
CRC32 hash : 17F6057E
CRC32 hash (skip zero) : 8F5741F2
AccurateRip v1 signature : D0592A80
AccurateRip v2 signature : AD56B62B
->Rip may not be accurate (total 1 submission).
Statistics
Read error : 0
Jitter error (maybe fixed) : 0
Retry sector count : 0
Damaged sector count : 0

No errors occurred

End of status report

X Lossless Decoder version 20120908 (141.1)

XLD extraction logfile from 2012-09-25 07:22:42 +1000

Keith Jarrett / Keith Jarrett - Book Of Ways (1987) [FLAC] CD2

Used drive : OPTIARC DVD RW AD-5680H (revision 3AHB)

Ripper mode : XLD Secure Ripper
Disable audio cache : OK for the drive with a cache less than 1375KiB
Make use of C2 pointers : NO
Read offset correction : 48
Max retry count : 100
Gap status : Analyzed, Appended (except HTOA)

TOC of the extracted CD
Track | Start | Length | Start sector | End sector
––––––––––––––––––––––––––––-
1 | 00:00:33 | 06:23:00 | 33 | 28757
2 | 06:23:33 | 04:16:00 | 28758 | 47957
3 | 10:39:33 | 04:45:00 | 47958 | 69332
4 | 15:24:33 | 07:18:00 | 69333 | 102182
5 | 22:42:33 | 05:56:00 | 102183 | 128882
6 | 28:38:33 | 07:34:72 | 128883 | 163004
7 | 36:13:30 | 04:03:03 | 163005 | 181232
8 | 40:16:33 | 07:24:00 | 181233 | 214532
9 | 47:40:33 | 05:39:25 | 214533 | 239982

List of alternate offset correction values
# | Absolute | Relative | Confidence
–––––––––––––––––––––
1 | 1384 | 1336 | 19

AccurateRip Summary (DiscID: 0011f15e-008483ce-760c7f09)
Track 01 : OK (v1+v2, confidence 19/19, with different offset)
Track 02 : OK (v1+v2, confidence 19/19, with different offset)
Track 03 : OK (v1+v2, confidence 19/19, with different offset)
Track 04 : OK (v1+v2, confidence 18/18, with different offset)
Track 05 : OK (v1+v2, confidence 18/18, with different offset)
Track 06 : OK (v1+v2, confidence 19/19, with different offset)
Track 07 : OK (v1+v2, confidence 19/19, with different offset)
Track 08 : OK (v1+v2, confidence 19/19, with different offset)
Track 09 : OK (v1+v2, confidence 18/18, with different offset)
->All tracks accurately ripped.

All Tracks
Album gain : 4.04 dB
Peak : 0.809509
Statistics
Read error : 0
Jitter error (maybe fixed) : 0
Retry sector count : 0
Damaged sector count : 0

Track 01
Filename : /Volumes/RIPs/Keith Jarrett - Book Of Ways (1987) [FLAC]/CD2/01 - Book Of Ways, The Feeling Of Strings, No. 11.flac
Pre-gap length : 00:02:33

Track gain : 3.31 dB
Peak : 0.690460
CRC32 hash (test run) : D72A718C
CRC32 hash : D72A718C
CRC32 hash (skip zero) : AD8852AC
AccurateRip v1 signature : DFF4F02A (848AA562 w/correction)
AccurateRip v2 signature : FE647676 (0A45B4A1 w/correction)
->Accurately ripped with different offset (v1+v2, confidence 17+2/19, offset +1336)
Statistics
Read error : 0
Jitter error (maybe fixed) : 0
Retry sector count : 0
Damaged sector count : 0

Track 02
Filename : /Volumes/RIPs/Keith Jarrett - Book Of Ways (1987) [FLAC]/CD2/02 - Book Of Ways, The Feeling Of Strings, No. 12.flac
Pre-gap length : 00:06:30

Track gain : 4.77 dB
Peak : 0.536163
CRC32 hash (test run) : 48E16B35
CRC32 hash : 48E16B35
CRC32 hash (skip zero) : E10E8962
AccurateRip v1 signature : A4FEB0A1 (725B1F61 w/correction)
AccurateRip v2 signature : 7074BF85 (8278223A w/correction)
->Accurately ripped with different offset (v1+v2, confidence 17+2/19, offset +1336)
Statistics
Read error : 0
Jitter error (maybe fixed) : 0
Retry sector count : 0
Damaged sector count : 0

Track 03
Filename : /Volumes/RIPs/Keith Jarrett - Book Of Ways (1987) [FLAC]/CD2/03 - Book Of Ways, The Feeling Of Strings, No. 13.flac
Pre-gap length : 00:07:60

Track gain : 6.52 dB
Peak : 0.321350
CRC32 hash (test run) : 0A758E8C
CRC32 hash : 0A758E8C
CRC32 hash (skip zero) : AA6D4C98
AccurateRip v1 signature : 4DE50C32 (C888C0E2 w/correction)
AccurateRip v2 signature : 48D5A376 (D66330A4 w/correction)
->Accurately ripped with different offset (v1+v2, confidence 17+2/19, offset +1336)
Statistics
Read error : 0
Jitter error (maybe fixed) : 0
Retry sector count : 0
Damaged sector count : 0

Track 04
Filename : /Volumes/RIPs/Keith Jarrett - Book Of Ways (1987) [FLAC]/CD2/04 - Book Of Ways, The Feeling Of Strings, No. 14.flac
Pre-gap length : 00:07:25

Track gain : 4.30 dB
Peak : 0.729706
CRC32 hash (test run) : 75602B48
CRC32 hash : 75602B48
CRC32 hash (skip zero) : 71CCE9DD
AccurateRip v1 signature : B31AF06D (E95A55A5 w/correction)
AccurateRip v2 signature : 5DF0B70A (8F8D9A6A w/correction)
->Accurately ripped with different offset (v1+v2, confidence 16+2/18, offset +1336)
Statistics
Read error : 0
Jitter error (maybe fixed) : 0
Retry sector count : 0
Damaged sector count : 0

Track 05
Filename : /Volumes/RIPs/Keith Jarrett - Book Of Ways (1987) [FLAC]/CD2/05 - Book Of Ways, The Feeling Of Strings, No. 15.flac
Pre-gap length : 00:07:23

Track gain : 0.59 dB
Peak : 0.809509
CRC32 hash (test run) : 324C8991
CRC32 hash : 324C8991
CRC32 hash (skip zero) : 54311485
AccurateRip v1 signature : 8FCC91FA (51ED7B02 w/correction)
AccurateRip v2 signature : A403F063 (FEA9FD8C w/correction)
->Accurately ripped with different offset (v1+v2, confidence 16+2/18, offset +1336)
Statistics
Read error : 0
Jitter error (maybe fixed) : 0
Retry sector count : 0
Damaged sector count : 0

Track 06
Filename : /Volumes/RIPs/Keith Jarrett - Book Of Ways (1987) [FLAC]/CD2/06 - Book Of Ways, The Feeling Of Strings, No. 16.flac
Pre-gap length : 00:08:00

Track gain : 5.27 dB
Peak : 0.462097
CRC32 hash (test run) : 7D0F79B0
CRC32 hash : 7D0F79B0
CRC32 hash (skip zero) : A10E2254
AccurateRip v1 signature : 6A2B5E25 (524DA81D w/correction)
AccurateRip v2 signature : A9318F09 (73E376D6 w/correction)
->Accurately ripped with different offset (v1+v2, confidence 17+2/19, offset +1336)
Statistics
Read error : 0
Jitter error (maybe fixed) : 0
Retry sector count : 0
Damaged sector count : 0

Track 07
Filename : /Volumes/RIPs/Keith Jarrett - Book Of Ways (1987) [FLAC]/CD2/07 - Book Of Ways, The Feeling Of Strings, No. 17.flac
Pre-gap length : 00:07:50

Track gain : 6.39 dB
Peak : 0.358154
CRC32 hash (test run) : 8C9B151A
CRC32 hash : 8C9B151A
CRC32 hash (skip zero) : 8561959C
AccurateRip v1 signature : 381B9910 (BA13D818 w/correction)
AccurateRip v2 signature : 2BE88F0B (09ED704F w/correction)
->Accurately ripped with different offset (v1+v2, confidence 17+2/19, offset +1336)
Statistics
Read error : 0
Jitter error (maybe fixed) : 0
Retry sector count : 0
Damaged sector count : 0

Track 08
Filename : /Volumes/RIPs/Keith Jarrett - Book Of Ways (1987) [FLAC]/CD2/08 - Book Of Ways, The Feeling Of Strings, No. 18.flac
Pre-gap length : 00:06:58

Track gain : 8.53 dB
Peak : 0.474487
CRC32 hash (test run) : 35B719A6
CRC32 hash : 35B719A6
CRC32 hash (skip zero) : 8BC20EAE
AccurateRip v1 signature : DC1FB860 (73D22A58 w/correction)
AccurateRip v2 signature : DD08FAA9 (654AFDDF w/correction)
->Accurately ripped with different offset (v1+v2, confidence 17+2/19, offset +1336)
Statistics
Read error : 0
Jitter error (maybe fixed) : 0
Retry sector count : 0
Damaged sector count : 0

Track 09
Filename : /Volumes/RIPs/Keith Jarrett - Book Of Ways (1987) [FLAC]/CD2/09 - Book Of Ways, The Feeling Of Strings, No. 19.flac
Pre-gap length : 00:07:13

Track gain : 6.39 dB
Peak : 0.424347
CRC32 hash (test run) : DC6C27E4
CRC32 hash : DC6C27E4
CRC32 hash (skip zero) : 0B307CBC
AccurateRip v1 signature : 23D29AD3 (301CA4A3 w/correction)
AccurateRip v2 signature : 912A6426 (400813A7 w/correction)
->Accurately ripped with different offset (v1+v2, confidence 16+2/18, offset +1336)
Statistics
Read error : 0
Jitter error (maybe fixed) : 0
Retry sector count : 0
Damaged sector count : 0

No errors occurred

End of status report


Keith Jarrett - Book Of Ways (1987) {2CD ECM 1344~45}


All thanks goes to the original releaser!


===