Tags
Language
Tags

Keith Jarrett - Sun Bear Concerts - Piano Solo (1976) {6CD Set Japanese 1st Press ECM J00J 20375/80 rel 1990}

Posted By: ruskaval
Keith Jarrett - Sun Bear Concerts - Piano Solo (1976) {6CD Set Japanese 1st Press ECM J00J 20375/80 rel 1990}

Keith Jarrett - Sun Bear Concerts - Piano Solo (1976) {6CD Set Japanese 1st Press ECM J00J 20375/80 rel 1990}
EAC rip (secure mode) | FLAC (tracks)+CUE+LOG -> 1.58 Gb | MP3 @320 -> 928 Mb
Full Artwork @ 300 dpi (jpg) -> 52 Mb | 5% repair rar
© 1976, 1990 ECM Records Japan | J00J 20375/80
Jazz / Post Bop / Piano

This gargantuan package – a ten-LP set now compressed into a chunky six-CD box – once was derided as the ultimate ego trip, probably by many who didn't take the time to hear it all. You have to go back to Art Tatum's solo records for Norman Granz in the '50s to find another large single outpouring of solo jazz piano like this, all of it improvised on the wing before five Japanese audiences in Kyoto, Osaka, Nagoya, Tokyo, and Sapporo. Yet the miracle is how consistently good much of this giant box is.

In the opening Kyoto concert, Jarrett's gospel-driven muse is in full play, up to the level of his peak solo performances in Bremen and Koln, and the Osaka and Nagoya concerts have pockets of first-rate, often folk-like, even profound, lyrical ideas. The Tokyo concert takes a while to get in gear, but when Jarrett finally locks into one of his grooving vamps, he carries us along, and there is a memorably melodic encore. In Sapporo, Jarrett breaks from a nicely flowing pattern into a jumpy rhythm that reminds one of C&W guitar fingerpicking, and there's some exuberant barrelhouse stuff and outbreaks of dissonance in part two. Each concert is placed on a single CD, while the much briefer sixth disc is reserved for the encores from Nagoya, Tokyo, and Sapporo. While Sun Bear breaks little ground that his earlier solo piano albums had not already covered, it is nevertheless richly inventive within Jarrett's personal parameter of idioms. If price is not a barrier, the Jarrett devotee need not hesitate.
Keith Jarrett - Sun Bear Concerts - Piano Solo (1976) {6CD Set Japanese 1st Press ECM J00J 20375/80 rel 1990}


Musicians:
Keith Jarrett - solo piano

Track Listing


CD1

01. Kyoto, November 5, 1976 (Part 1)
02. Kyoto, November 5, 1976 (Part 2)

CD2
01. Osaka, November 8, 1976 (Part 1)
02. Osaka, November 8, 1976 (Part 2)

CD3
01. Nagoya, November 12, 1976 (Part 1)
02. Nagoya, November 12, 1976 (Part 2)

CD4
01. Tokyo, November 14, 1976 (Part 1)
02. Tokyo, November 14, 1976 (Part 2)

CD5
01. Sapporo, November 18, 1976 (Part 1)
02. Sapporo, November 18, 1976 (Part 2)

CD6
01. Encore From Sapporo
02. Encore From Tokyo
03. Encore From Nagoya

EAC extraction logfile from 30. November 2006, 11:05 for CD
Keith,Jarrett / Sun Bear Concerts - Kyoto

Used drive : PHILIPS DROM6216 Adapter: 3 ID: 0
Read mode : Secure with NO C2, accurate stream, disable cache
Read offset correction : 738
Overread into Lead-In and Lead-Out : No

Used output format : C:\Program Files\FLAC\flac.exe (User Defined Encoder)
320 kBit/s
Additional command line options : -8 -V -T "artist=%a" -T "title=%t" -T "album=%g" -T "date=%y" -T "tracknumber=%n" -T "genre=%m" %s

Other options :
Fill up missing offset samples with silence : Yes
Delete leading and trailing silent blocks : No
Installed external ASPI interface


Track 1
Filename K:\Music One\Keith Jarrett - Sun Bear concerts (1978) [flac]{japanese ECM}\cd1\01 - Part I.wav

Pre-gap length 0:00:02.37

Peak level 97.4 %
Track quality 100.0 %
Test CRC F6803F29
Copy CRC F6803F29
Copy OK

Track 2
Filename K:\Music One\Keith Jarrett - Sun Bear concerts (1978) [flac]{japanese ECM}\cd1\02 - Part II.wav

Pre-gap length 0:00:05.10

Peak level 97.0 %
Track quality 99.9 %
Test CRC 005FAB1F
Copy CRC 005FAB1F
Copy OK

No errors occured


End of status report

––––––––––––––––––––––––––––––

EAC extraction logfile from 30. November 2006, 11:06 for CD
Keith,Jarrett / Sun Bear Concerts - Kyoto

Used drive : PHILIPS DROM6216 Adapter: 3 ID: 0
Read mode : Secure with NO C2, accurate stream, disable cache
Read offset correction : 738
Overread into Lead-In and Lead-Out : No

Used output format : C:\Program Files\FLAC\flac.exe (User Defined Encoder)
320 kBit/s
Additional command line options : -8 -V -T "artist=%a" -T "title=%t" -T "album=%g" -T "date=%y" -T "tracknumber=%n" -T "genre=%m" %s

Other options :
Fill up missing offset samples with silence : Yes
Delete leading and trailing silent blocks : No
Installed external ASPI interface


Track 1
Filename K:\Music One\Keith Jarrett - Sun Bear concerts (1978) [flac]{japanese ECM}\cd1\01 - Part I.wav

Pre-gap length 0:00:02.37

Peak level 97.4 %
Track quality 100.0 %
Test CRC F6803F29
Copy CRC F6803F29
Copy OK

Track 2
Filename K:\Music One\Keith Jarrett - Sun Bear concerts (1978) [flac]{japanese ECM}\cd1\02 - Part II.wav

Pre-gap length 0:00:05.10

Peak level 97.0 %
Track quality 99.9 %
Test CRC 005FAB1F
Copy CRC 005FAB1F
Copy OK

No errors occured


End of status report



EAC extraction logfile from 30. November 2006, 17:49 for CD
Keith Jarrett / Sun Bear Concerts - Osaka

Used drive : PHILIPS DROM6216 Adapter: 3 ID: 0
Read mode : Secure with NO C2, accurate stream, disable cache
Read offset correction : 738
Overread into Lead-In and Lead-Out : No

Used output format : C:\Program Files\FLAC\flac.exe (User Defined Encoder)
320 kBit/s
Additional command line options : -8 -V -T "artist=%a" -T "title=%t" -T "album=%g" -T "date=%y" -T "tracknumber=%n" -T "genre=%m" %s

Other options :
Fill up missing offset samples with silence : Yes
Delete leading and trailing silent blocks : No
Installed external ASPI interface


Track 1
Filename K:\Music One\Keith Jarrett - Sun Bear concerts (1978) [flac]{japanese ECM}\cd2\01 - Part I.wav

Pre-gap length 0:00:02.37

Peak level 93.8 %
Track quality 100.0 %
Test CRC 899E68ED
Copy CRC 899E68ED
Copy OK

Track 2
Filename K:\Music One\Keith Jarrett - Sun Bear concerts (1978) [flac]{japanese ECM}\cd2\02 - Part II.wav

Pre-gap length 0:00:03.72

Peak level 93.2 %
Track quality 100.0 %
Test CRC 3247D34E
Copy CRC 3247D34E
Copy OK

No errors occured


End of status report

––––––––––––––––––––––––––––––

EAC extraction logfile from 30. November 2006, 17:50 for CD
Keith Jarrett / Sun Bear Concerts - Osaka

Used drive : PHILIPS DROM6216 Adapter: 3 ID: 0
Read mode : Secure with NO C2, accurate stream, disable cache
Read offset correction : 738
Overread into Lead-In and Lead-Out : No

Used output format : C:\Program Files\FLAC\flac.exe (User Defined Encoder)
320 kBit/s
Additional command line options : -8 -V -T "artist=%a" -T "title=%t" -T "album=%g" -T "date=%y" -T "tracknumber=%n" -T "genre=%m" %s

Other options :
Fill up missing offset samples with silence : Yes
Delete leading and trailing silent blocks : No
Installed external ASPI interface


Track 1
Filename K:\Music One\Keith Jarrett - Sun Bear concerts (1978) [flac]{japanese ECM}\cd2\01 - Part I.wav

Pre-gap length 0:00:02.37

Peak level 93.8 %
Track quality 100.0 %
Test CRC 899E68ED
Copy CRC 899E68ED
Copy OK

Track 2
Filename K:\Music One\Keith Jarrett - Sun Bear concerts (1978) [flac]{japanese ECM}\cd2\02 - Part II.wav

Pre-gap length 0:00:03.72

Peak level 93.2 %
Track quality 100.0 %
Test CRC 3247D34E
Copy CRC 3247D34E
Copy OK

No errors occured


End of status report


EAC extraction logfile from 1. December 2006, 21:47 for CD
Keith Jarrett / Sun Bear Concerts - Nagoya

Used drive : PHILIPS DROM6216 Adapter: 3 ID: 0
Read mode : Secure with NO C2, accurate stream, disable cache
Read offset correction : 738
Overread into Lead-In and Lead-Out : No

Used output format : C:\Program Files\FLAC\flac.exe (User Defined Encoder)
320 kBit/s
Additional command line options : -8 -V -T "artist=%a" -T "title=%t" -T "album=%g" -T "date=%y" -T "tracknumber=%n" -T "genre=%m" %s

Other options :
Fill up missing offset samples with silence : Yes
Delete leading and trailing silent blocks : No
Installed external ASPI interface


Track 1
Filename L:\Music 3\Keith Jarrett - Sun Bear concerts (1978) [flac]{japanese ECM}\cd3\01 - Part I.wav

Pre-gap length 0:00:02.37

Peak level 89.9 %
Track quality 100.0 %
Test CRC DB1B3EDA
Copy CRC DB1B3EDA
Copy OK

Track 2
Filename L:\Music 3\Keith Jarrett - Sun Bear concerts (1978) [flac]{japanese ECM}\cd3\02 - Part II.wav

Pre-gap length 0:00:04.57

Peak level 89.7 %
Track quality 100.0 %
Test CRC DB3D4E34
Copy CRC DB3D4E34
Copy OK

No errors occured


End of status report

––––––––––––––––––––––––––––––

EAC extraction logfile from 1. December 2006, 21:47 for CD
Keith Jarrett / Sun Bear Concerts - Nagoya

Used drive : PHILIPS DROM6216 Adapter: 3 ID: 0
Read mode : Secure with NO C2, accurate stream, disable cache
Read offset correction : 738
Overread into Lead-In and Lead-Out : No

Used output format : C:\Program Files\FLAC\flac.exe (User Defined Encoder)
320 kBit/s
Additional command line options : -8 -V -T "artist=%a" -T "title=%t" -T "album=%g" -T "date=%y" -T "tracknumber=%n" -T "genre=%m" %s

Other options :
Fill up missing offset samples with silence : Yes
Delete leading and trailing silent blocks : No
Installed external ASPI interface


Track 1
Filename L:\Music 3\Keith Jarrett - Sun Bear concerts (1978) [flac]{japanese ECM}\cd3\01 - Part I.wav

Pre-gap length 0:00:02.37

Peak level 89.9 %
Track quality 100.0 %
Test CRC DB1B3EDA
Copy CRC DB1B3EDA
Copy OK

Track 2
Filename L:\Music 3\Keith Jarrett - Sun Bear concerts (1978) [flac]{japanese ECM}\cd3\02 - Part II.wav

Pre-gap length 0:00:04.57

Peak level 89.7 %
Track quality 100.0 %
Test CRC DB3D4E34
Copy CRC DB3D4E34
Copy OK

No errors occured


End of status report


EAC extraction logfile from 2. December 2006, 9:10 for CD
Keith Jarrett / Sun Bear Concerts - Tokyo

Used drive : PHILIPS DROM6216 Adapter: 3 ID: 0
Read mode : Secure with NO C2, accurate stream, disable cache
Read offset correction : 738
Overread into Lead-In and Lead-Out : No

Used output format : C:\Program Files\FLAC\flac.exe (User Defined Encoder)
320 kBit/s
Additional command line options : -8 -V -T "artist=%a" -T "title=%t" -T "album=%g" -T "date=%y" -T "tracknumber=%n" -T "genre=%m" %s

Other options :
Fill up missing offset samples with silence : Yes
Delete leading and trailing silent blocks : No
Installed external ASPI interface


Track 1
Filename L:\Music 3\Keith Jarrett - Sun Bear concerts (1978) [flac]{japanese ECM}\cd4\01 - Part I.wav

Pre-gap length 0:00:02.37

Peak level 91.0 %
Track quality 100.0 %
Test CRC FCB97694
Copy CRC FCB97694
Copy OK

Track 2
Filename L:\Music 3\Keith Jarrett - Sun Bear concerts (1978) [flac]{japanese ECM}\cd4\02 - Part II.wav

Pre-gap length 0:00:01.60

Peak level 88.5 %
Track quality 100.0 %
Test CRC 5235B82A
Copy CRC 5235B82A
Copy OK

No errors occured


End of status report

––––––––––––––––––––––––––––––

EAC extraction logfile from 2. December 2006, 9:10 for CD
Keith Jarrett / Sun Bear Concerts - Tokyo

Used drive : PHILIPS DROM6216 Adapter: 3 ID: 0
Read mode : Secure with NO C2, accurate stream, disable cache
Read offset correction : 738
Overread into Lead-In and Lead-Out : No

Used output format : C:\Program Files\FLAC\flac.exe (User Defined Encoder)
320 kBit/s
Additional command line options : -8 -V -T "artist=%a" -T "title=%t" -T "album=%g" -T "date=%y" -T "tracknumber=%n" -T "genre=%m" %s

Other options :
Fill up missing offset samples with silence : Yes
Delete leading and trailing silent blocks : No
Installed external ASPI interface


Track 1
Filename L:\Music 3\Keith Jarrett - Sun Bear concerts (1978) [flac]{japanese ECM}\cd4\01 - Part I.wav

Pre-gap length 0:00:02.37

Peak level 91.0 %
Track quality 100.0 %
Test CRC FCB97694
Copy CRC FCB97694
Copy OK

Track 2
Filename L:\Music 3\Keith Jarrett - Sun Bear concerts (1978) [flac]{japanese ECM}\cd4\02 - Part II.wav

Pre-gap length 0:00:01.60

Peak level 88.5 %
Track quality 100.0 %
Test CRC 5235B82A
Copy CRC 5235B82A
Copy OK

No errors occured


End of status report


EAC extraction logfile from 2. December 2006, 10:00 for CD
Keith Jarrett / Sun Bear Concerts - Sapporo

Used drive : PHILIPS DROM6216 Adapter: 3 ID: 0
Read mode : Secure with NO C2, accurate stream, disable cache
Read offset correction : 738
Overread into Lead-In and Lead-Out : No

Used output format : C:\Program Files\FLAC\flac.exe (User Defined Encoder)
320 kBit/s
Additional command line options : -8 -V -T "artist=%a" -T "title=%t" -T "album=%g" -T "date=%y" -T "tracknumber=%n" -T "genre=%m" %s

Other options :
Fill up missing offset samples with silence : Yes
Delete leading and trailing silent blocks : No
Installed external ASPI interface


Track 1
Filename L:\Music 3\Keith Jarrett - Sun Bear concerts (1978) [flac]{japanese ECM}\cd5\01 - Part I.wav

Pre-gap length 0:00:02.37

Peak level 76.4 %
Track quality 100.0 %
Test CRC 7AD3D61F
Copy CRC 7AD3D61F
Copy OK

Track 2
Filename L:\Music 3\Keith Jarrett - Sun Bear concerts (1978) [flac]{japanese ECM}\cd5\02 - Part II.wav

Pre-gap length 0:00:05.12

Peak level 91.2 %
Track quality 100.0 %
Test CRC 5577337B
Copy CRC 5577337B
Copy OK

No errors occured


End of status report

––––––––––––––––––––––––––––––

EAC extraction logfile from 2. December 2006, 10:00 for CD
Keith Jarrett / Sun Bear Concerts - Sapporo

Used drive : PHILIPS DROM6216 Adapter: 3 ID: 0
Read mode : Secure with NO C2, accurate stream, disable cache
Read offset correction : 738
Overread into Lead-In and Lead-Out : No

Used output format : C:\Program Files\FLAC\flac.exe (User Defined Encoder)
320 kBit/s
Additional command line options : -8 -V -T "artist=%a" -T "title=%t" -T "album=%g" -T "date=%y" -T "tracknumber=%n" -T "genre=%m" %s

Other options :
Fill up missing offset samples with silence : Yes
Delete leading and trailing silent blocks : No
Installed external ASPI interface


Track 1
Filename L:\Music 3\Keith Jarrett - Sun Bear concerts (1978) [flac]{japanese ECM}\cd5\01 - Part I.wav

Pre-gap length 0:00:02.37

Peak level 76.4 %
Track quality 100.0 %
Test CRC 7AD3D61F
Copy CRC 7AD3D61F
Copy OK

Track 2
Filename L:\Music 3\Keith Jarrett - Sun Bear concerts (1978) [flac]{japanese ECM}\cd5\02 - Part II.wav

Pre-gap length 0:00:05.12

Peak level 91.2 %
Track quality 100.0 %
Test CRC 5577337B
Copy CRC 5577337B
Copy OK

No errors occured


End of status report

EAC extraction logfile from 2. December 2006, 11:05 for CD
Keith Jarrett / Sun Bear Concerts - Encores

Used drive : PHILIPS DROM6216 Adapter: 3 ID: 0
Read mode : Secure with NO C2, accurate stream, disable cache
Read offset correction : 738
Overread into Lead-In and Lead-Out : No

Used output format : C:\Program Files\FLAC\flac.exe (User Defined Encoder)
320 kBit/s
Additional command line options : -8 -V -T "artist=%a" -T "title=%t" -T "album=%g" -T "date=%y" -T "tracknumber=%n" -T "genre=%m" %s

Other options :
Fill up missing offset samples with silence : Yes
Delete leading and trailing silent blocks : No
Installed external ASPI interface


Track 1
Filename L:\Music 3\Keith Jarrett - Sun Bear concerts (1978) [flac]{japanese ECM}\cd6\01 - Sapporo.wav

Pre-gap length 0:00:02.37

Peak level 88.7 %
Track quality 100.0 %
Test CRC 55540E4D
Copy CRC 55540E4D
Copy OK

Track 2
Filename L:\Music 3\Keith Jarrett - Sun Bear concerts (1978) [flac]{japanese ECM}\cd6\02 - Tokyo.wav

Pre-gap length 0:00:06.65

Peak level 92.3 %
Track quality 99.9 %
Test CRC 4C2A7AC8
Copy CRC 4C2A7AC8
Copy OK

Track 3
Filename L:\Music 3\Keith Jarrett - Sun Bear concerts (1978) [flac]{japanese ECM}\cd6\03 - Nagoya.wav

Pre-gap length 0:00:05.71

Peak level 69.8 %
Track quality 100.0 %
Test CRC E2D99831
Copy CRC E2D99831
Copy OK

No errors occured


End of status report

––––––––––––––––––––––––––––––

EAC extraction logfile from 2. December 2006, 11:05 for CD
Keith Jarrett / Sun Bear Concerts - Encores

Used drive : PHILIPS DROM6216 Adapter: 3 ID: 0
Read mode : Secure with NO C2, accurate stream, disable cache
Read offset correction : 738
Overread into Lead-In and Lead-Out : No

Used output format : C:\Program Files\FLAC\flac.exe (User Defined Encoder)
320 kBit/s
Additional command line options : -8 -V -T "artist=%a" -T "title=%t" -T "album=%g" -T "date=%y" -T "tracknumber=%n" -T "genre=%m" %s

Other options :
Fill up missing offset samples with silence : Yes
Delete leading and trailing silent blocks : No
Installed external ASPI interface


Track 1
Filename L:\Music 3\Keith Jarrett - Sun Bear concerts (1978) [flac]{japanese ECM}\cd6\01 - Sapporo.wav

Pre-gap length 0:00:02.37

Peak level 88.7 %
Track quality 100.0 %
Test CRC 55540E4D
Copy CRC 55540E4D
Copy OK

Track 2
Filename L:\Music 3\Keith Jarrett - Sun Bear concerts (1978) [flac]{japanese ECM}\cd6\02 - Tokyo.wav

Pre-gap length 0:00:06.65

Peak level 92.3 %
Track quality 99.9 %
Test CRC 4C2A7AC8
Copy CRC 4C2A7AC8
Copy OK

Track 3
Filename L:\Music 3\Keith Jarrett - Sun Bear concerts (1978) [flac]{japanese ECM}\cd6\03 - Nagoya.wav

Pre-gap length 0:00:05.71

Peak level 69.8 %
Track quality 100.0 %
Test CRC E2D99831
Copy CRC E2D99831
Copy OK

No errors occured


End of status report


Keith Jarrett - Sun Bear Concerts - Piano Solo (1976) {6CD Set Japanese 1st Press ECM J00J 20375/80 rel 1990}

Keith Jarrett - Sun Bear Concerts - Piano Solo (1976) {6CD Set Japanese 1st Press ECM J00J 20375/80 rel 1990}


see more Keith Jarrett…


===