Subcategories

Kenny Burrell & John Coltrane - Kenny Burrell & John Coltrane (1958) {Prestige Japan, VDJ-1533, Mono, Early Press rel 1986}

Posted By: ruskaval
Kenny Burrell & John Coltrane - Kenny Burrell & John Coltrane (1958) {Prestige Japan, VDJ-1533, Mono, Early Press rel 1986}

Kenny Burrell & John Coltrane - Kenny Burrell & John Coltrane (1958) {Prestige Japan, VDJ-1533, Mono, Early Press rel 1986}
EAC rip (secure mode) | FLAC (tracks)+CUE+LOG -> 246 Mb | MP3 @320 -> 90 Mb
Full Artwork @ 600 dpi (png) -> 171 Mb | 5% repair rar
© 1958, 1986 Prestige / Victor Japan | VDJ-1533 | Mono | direct from a master recording
Jazz / Bop / Hard Bop / Guitar / Saxophone

One of our favorite Kenny Burrell albums – and a record with a much deeper feel than lots of his other work! Kenny cut this album with John Coltrane in 1958 – and the session's a real standout in both of their careers at the time – Kenny's, for being a well-crafted, highly-focused effort – and Coltrane's, for being a unique outing with a guitar, but one that's done with the same deep-spirited sound of his best work for Prestige. The group's a quintet, with Tommy Flanagan, Paul Chambers and Jimmy Cobb in the rhythm section.
Kenny Burrell & John Coltrane - Kenny Burrell & John Coltrane (1958) {Prestige Japan, VDJ-1533, Mono, Early Press rel 1986}


Digital transferred from the original analog 1950's source material by Joe Gastwirt & Dan Hersch at JVC Cutting Center, Sunset Blvd, Los Angeles, CA, 1985 using JVC/DAS-900 digital audio mastering system .

Musicians

Kenny Burrell - guitar
John Coltrane - tenor saxophone
Tommy Flanagan - piano
Paul Chambers - bass
Jimmy Cobb - drums

Recorded March 7, 1958 at Van Gelder Studios, Hackensack, New Jersey

Track Listing

1 Freight Trane 7:20
2 I Never Knew 7:04
3 Lyresto 5:42
4 Why Was I Born? 3:14
5 Big Paul 14:07

Exact Audio Copy V1.0 beta 3 from 29. August 2011

EAC extraction logfile from 13. August 2017, 20:36

Kenny Burrell & John Coltrane / Kenny Burrell & John Coltrane

Used drive : HL-DT-STDVDRAM GU70N Adapter: 0 ID: 0

Read mode : Secure
Utilize accurate stream : Yes
Defeat audio cache : Yes
Make use of C2 pointers : No

Read offset correction : 48
Overread into Lead-In and Lead-Out : No
Fill up missing offset samples with silence : Yes
Delete leading and trailing silent blocks : No
Null samples used in CRC calculations : Yes
Used interface : Native Win32 interface for Win NT & 2000
Gap handling : Appended to previous track

Used output format : User Defined Encoder
Selected bitrate : 128 kBit/s
Quality : High
Add ID3 tag : No
Command line compressor : C:\Program Files (x86)\Exact Audio Copy\Flac\flac.exe
Additional command line options : -8 -V -T "ARTIST=%artist%" -T "TITLE=%title%" -T "ALBUM=%albumtitle%" -T "DATE=%year%" -T "TRACKNUMBER=%tracknr%" -T "TOTALTRACKS=%numtracks%" -T "GENRE=%genre%" -T "ALBUMARTIST=%albumartist%" -T "ALBUM ARTIST=%albumartist%" -T "COMMENT=EAC Secure Mode, Test & Copy, AccurateRip, FLAC -8" %source%


TOC of the extracted CD

Track | Start | Length | Start sector | End sector
––––––––––––––––––––––––––––-
1 | 0:00.37 | 7:21.35 | 37 | 33146
2 | 7:21.72 | 7:06.15 | 33147 | 65111
3 | 14:28.12 | 5:43.55 | 65112 | 90891
4 | 20:11.67 | 3:15.03 | 90892 | 105519
5 | 23:26.70 | 14:07.17 | 105520 | 169061


Track 1

Filename F:\EAC\Kenny Burrell & John Coltrane - Kenny Burrell & John Coltrane (1958) [FLAC] {Prestige, VDJ-1533, Early Press}\01 - Freight Trane.wav

Pre-gap length 0:00:02.37

Peak level 94.4 %
Extraction speed 1.4 X
Track quality 100.0 %
Test CRC 3908EFBE
Copy CRC 3908EFBE
Accurately ripped (confidence 2) [D7B355CF] (AR v2)
Copy OK

Track 2

Filename F:\EAC\Kenny Burrell & John Coltrane - Kenny Burrell & John Coltrane (1958) [FLAC] {Prestige, VDJ-1533, Early Press}\02 - I Never Knew.wav

Pre-gap length 0:00:01.27

Peak level 87.7 %
Extraction speed 1.6 X
Track quality 100.0 %
Test CRC 7673D0DE
Copy CRC 7673D0DE
Accurately ripped (confidence 2) [30844C48] (AR v2)
Copy OK

Track 3

Filename F:\EAC\Kenny Burrell & John Coltrane - Kenny Burrell & John Coltrane (1958) [FLAC] {Prestige, VDJ-1533, Early Press}\03 - Lyresto.wav

Pre-gap length 0:00:01.53

Peak level 88.3 %
Extraction speed 1.8 X
Track quality 100.0 %
Test CRC 4BF13505
Copy CRC 4BF13505
Accurately ripped (confidence 2) [23D86AC0] (AR v2)
Copy OK

Track 4

Filename F:\EAC\Kenny Burrell & John Coltrane - Kenny Burrell & John Coltrane (1958) [FLAC] {Prestige, VDJ-1533, Early Press}\04 - Why Was I Born.wav

Pre-gap length 0:00:01.32

Peak level 70.4 %
Extraction speed 1.7 X
Track quality 100.0 %
Test CRC B37C977F
Copy CRC B37C977F
Cannot be verified as accurate (confidence 2) [FDB50F7D], AccurateRip returned [019B1728] (AR v2)
Copy OK

Track 5

Filename F:\EAC\Kenny Burrell & John Coltrane - Kenny Burrell & John Coltrane (1958) [FLAC] {Prestige, VDJ-1533, Early Press}\05 - Big Paul.wav

Pre-gap length 0:00:01.22

Peak level 89.3 %
Extraction speed 2.2 X
Track quality 100.0 %
Test CRC 7A58014A
Copy CRC 7A58014A
Accurately ripped (confidence 2) [F4E39A6C] (AR v2)
Copy OK


4 track(s) accurately ripped
1 track(s) could not be verified as accurate

Some tracks could not be verified as accurate

No errors occurred

End of status report

==== Log checksum EAF5052E97844703695F8701218EEC3D939710ECA0D7590BFDFFC2DB7165E007 ====


Kenny Burrell & John Coltrane - Kenny Burrell & John Coltrane (1958) {Prestige Japan, VDJ-1533, Mono, Early Press rel 1986}

Kenny Burrell & John Coltrane - Kenny Burrell & John Coltrane (1958) {Prestige Japan, VDJ-1533, Mono, Early Press rel 1986}



===