Tags
Language
Tags

Kenny Cox - Introducing Kenny Cox and The Contemporary Jazz Quintet (1969) {Blue Note 85189 rel 2007}

Posted By: ruskaval
Kenny Cox - Introducing Kenny Cox and The Contemporary Jazz Quintet (1969) {Blue Note 85189 rel 2007}

Kenny Cox - Introducing Kenny Cox and The Contemporary Jazz Quintet (1969) {Blue Note 85189 rel 2007}
EAC rip (secure mode) | FLAC (tracks)+CUE+LOG -> 533 Mb | MP3 @320 -> 191 Mb
Full Artwork @ 300 dpi (jpg) -> 31 Mb | 5% repair rar
© 1968-69, 2007 Blue Note | 0946 3 85189 2 1
Jazz / Hard Bop / Post Bop / Piano

Originally released in 1968, Introducing Kenny Cox and the Contemporary Jazz Quintet is the first recording by the storied and somewhat lesser known Detroit ensemble. Led by pianist Cox, the Contemporary Jazz Quintet featured saxophonist Leon Henderson (brother of Joe Henderson), trumpeter Charles Moore, bassist Ron Brooks, and drummer Danny Spencer. Interestingly, this group is perhaps best known for its connection to the legendary Detroit rock group the MC5 as both Moore and Henderson performed on the band's 1971 cut "Sister Anne."

Cox himself was well established in the Detroit scene by the time of this recording having studied at the competitive Cass Tech High School and the Detroit Conservatory of Music as well as performed with a who's who of Detroit players including Yusef Lateef. Though well-versed in the traditions of jazz standards and bop, Cox and his ensemble resembles most closely here the classic Miles Davis quintet of the mid- and late '60s. But rather than merely aping Davis, the Contemporary Jazz Quintet had a muscular and urban group sensibility all its own. In that sense, this is fiery, expansive, and cerebral post-bop of the highest order.
Kenny Cox - Introducing Kenny Cox and The Contemporary Jazz Quintet (1969) {Blue Note 85189 rel 2007}


Tracks & personnel:

01. Mystique
02. You
03. Trance Dance
04. Eclipse
05. Number Four
06. Diahnn

Leon Henderson - tenor sax
Charles Moore - trumpet
Kenny Cox - piano
Ron Brooks - bass
Danny Spencer - drums

Recorded: December 9, 1968 Detroit, MI

07. Spellbound
08. Snuck In
09. Sojourn
10. Multidirection
11. What Other One
12. Gravity Point

Leon Henderson - tenor sax
Charles Moore - trumpet
Kenny Cox - piano
Ron Brooks - bass
Danny Spencer - drums

Recorded: November 26, 1969 East Detroit, MI

Exact Audio Copy V1.0 beta 3 from 29. August 2011

EAC extraction logfile from 2. December 2014, 16:45

Kenny Cox / Introducing Kenny Cox And The Contemporary Jazz Quintet

Used drive : ATAPI DVD A DH16ABSH Adapter: 2 ID: 1

Read mode : Secure
Utilize accurate stream : Yes
Defeat audio cache : Yes
Make use of C2 pointers : No

Read offset correction : 6
Overread into Lead-In and Lead-Out : No
Fill up missing offset samples with silence : Yes
Delete leading and trailing silent blocks : No
Null samples used in CRC calculations : Yes
Used interface : Native Win32 interface for Win NT & 2000
Gap handling : Appended to previous track

Used output format : User Defined Encoder
Selected bitrate : 128 kBit/s
Quality : High
Add ID3 tag : No
Command line compressor : C:\Program Files (x86)\Exact Audio Copy\FLAC\FLAC.EXE
Additional command line options : -8 -V -T "ARTIST=%artist%" -T "TITLE=%title%" -T "ALBUM=%albumtitle%" -T "DATE=%year%" -T "TRACKNUMBER=%tracknr%" -T "TOTALTRACKS=%numtracks%" -T "GENRE=%genre%" -T "ALBUMARTIST=%albumartist%" -T "ALBUM ARTIST=%albumartist%" -T "COMMENT=EAC Secure Mode, Test & Copy, AccurateRip, FLAC -8" %source%


TOC of the extracted CD

Track | Start | Length | Start sector | End sector
––––––––––––––––––––––––––––-
1 | 0:00.00 | 4:44.09 | 0 | 21308
2 | 4:44.09 | 5:28.19 | 21309 | 45927
3 | 10:12.28 | 6:08.47 | 45928 | 73574
4 | 16:21.00 | 5:51.16 | 73575 | 99915
5 | 22:12.16 | 10:48.06 | 99916 | 148521
6 | 33:00.22 | 8:37.41 | 148522 | 187337
7 | 41:37.63 | 5:23.24 | 187338 | 211586
8 | 47:01.12 | 6:03.57 | 211587 | 238868
9 | 53:04.69 | 6:36.49 | 238869 | 268617
10 | 59:41.43 | 9:57.38 | 268618 | 313430
11 | 69:39.06 | 4:58.64 | 313431 | 335844
12 | 74:37.70 | 5:08.68 | 335845 | 359012


Track 1

Filename C:\Users\owner\Desktop\Kenny Cox - Introducing Kenny Cox and The Contemporary Jazz Quintet (1968-69) [FLAC]\01 - Mystique.wav

Pre-gap length 0:00:02.00

Peak level 100.0 %
Extraction speed 2.0 X
Track quality 100.0 %
Test CRC 7D099F1B
Copy CRC 7D099F1B
Accurately ripped (confidence 3) [72351A16] (AR v1)
Copy OK

Track 2

Filename C:\Users\owner\Desktop\Kenny Cox - Introducing Kenny Cox and The Contemporary Jazz Quintet (1968-69) [FLAC]\02 - You.wav

Pre-gap length 0:00:01.17

Peak level 100.0 %
Extraction speed 2.4 X
Track quality 100.0 %
Test CRC BB28A0C0
Copy CRC BB28A0C0
Accurately ripped (confidence 4) [7F50BA0C] (AR v1)
Copy OK

Track 3

Filename C:\Users\owner\Desktop\Kenny Cox - Introducing Kenny Cox and The Contemporary Jazz Quintet (1968-69) [FLAC]\03 - Trance Dance.wav

Pre-gap length 0:00:01.30

Peak level 100.0 %
Extraction speed 2.6 X
Track quality 100.0 %
Test CRC 41FFDBAF
Copy CRC 41FFDBAF
Accurately ripped (confidence 4) [1AB54412] (AR v1)
Copy OK

Track 4

Filename C:\Users\owner\Desktop\Kenny Cox - Introducing Kenny Cox and The Contemporary Jazz Quintet (1968-69) [FLAC]\04 - Eclipse.wav

Pre-gap length 0:00:01.74

Peak level 100.0 %
Extraction speed 2.9 X
Track quality 100.0 %
Test CRC 8159753B
Copy CRC 8159753B
Accurately ripped (confidence 4) [CD7CF4EA] (AR v1)
Copy OK

Track 5

Filename C:\Users\owner\Desktop\Kenny Cox - Introducing Kenny Cox and The Contemporary Jazz Quintet (1968-69) [FLAC]\05 - Number Four.wav

Pre-gap length 0:00:02.13

Peak level 100.0 %
Extraction speed 2.8 X
Track quality 99.9 %
Test CRC 41879291
Copy CRC 41879291
Accurately ripped (confidence 4) [41590605] (AR v1)
Copy OK

Track 6

Filename C:\Users\owner\Desktop\Kenny Cox - Introducing Kenny Cox and The Contemporary Jazz Quintet (1968-69) [FLAC]\06 - Diahnn.wav

Pre-gap length 0:00:01.41

Peak level 100.0 %
Extraction speed 3.5 X
Track quality 100.0 %
Test CRC CF533EEB
Copy CRC CF533EEB
Accurately ripped (confidence 4) [25FC6272] (AR v1)
Copy OK

Track 7

Filename C:\Users\owner\Desktop\Kenny Cox - Introducing Kenny Cox and The Contemporary Jazz Quintet (1968-69) [FLAC]\07 - Spellbound.wav

Pre-gap length 0:00:01.57

Peak level 98.9 %
Extraction speed 3.3 X
Track quality 100.0 %
Test CRC A81288C5
Copy CRC A81288C5
Accurately ripped (confidence 4) [A3FA23A2] (AR v1)
Copy OK

Track 8

Filename C:\Users\owner\Desktop\Kenny Cox - Introducing Kenny Cox and The Contemporary Jazz Quintet (1968-69) [FLAC]\08 - Snuck In.wav

Pre-gap length 0:00:01.52

Peak level 98.9 %
Extraction speed 3.7 X
Track quality 100.0 %
Test CRC 994B7F35
Copy CRC 994B7F35
Accurately ripped (confidence 4) [9FC80A5A] (AR v1)
Copy OK

Track 9

Filename C:\Users\owner\Desktop\Kenny Cox - Introducing Kenny Cox and The Contemporary Jazz Quintet (1968-69) [FLAC]\09 - Sojourn.wav

Pre-gap length 0:00:01.43

Peak level 98.9 %
Extraction speed 3.9 X
Track quality 100.0 %
Test CRC F71D1F62
Copy CRC F71D1F62
Accurately ripped (confidence 4) [24BFC2B0] (AR v1)
Copy OK

Track 10

Filename C:\Users\owner\Desktop\Kenny Cox - Introducing Kenny Cox and The Contemporary Jazz Quintet (1968-69) [FLAC]\10 - Multidirection.wav

Peak level 98.9 %
Extraction speed 4.3 X
Track quality 100.0 %
Test CRC 1FBF77DB
Copy CRC 1FBF77DB
Accurately ripped (confidence 4) [4DE32572] (AR v1)
Copy OK

Track 11

Filename C:\Users\owner\Desktop\Kenny Cox - Introducing Kenny Cox and The Contemporary Jazz Quintet (1968-69) [FLAC]\11 - What Other One.wav

Pre-gap length 0:00:01.56

Peak level 98.9 %
Extraction speed 2.6 X
Track quality 99.9 %
Test CRC 62CEBBC1
Copy CRC 62CEBBC1
Cannot be verified as accurate (confidence 4) [09E384C5], AccurateRip returned [90406D8F] (AR v2)
Copy OK

Track 12

Filename C:\Users\owner\Desktop\Kenny Cox - Introducing Kenny Cox and The Contemporary Jazz Quintet (1968-69) [FLAC]\12 - Gravity Point.wav

Pre-gap length 0:00:01.48

Peak level 98.9 %
Extraction speed 4.1 X
Track quality 100.0 %
Test CRC 77AC9219
Copy CRC 77AC9219
Accurately ripped (confidence 4) [01DA5C58] (AR v1)
Copy OK


11 track(s) accurately ripped
1 track(s) could not be verified as accurate

Some tracks could not be verified as accurate

No errors occurred

End of status report

==== Log checksum DE1A615E481631066F58A15C27B708C1CAA3DEE3BB34ADA12969B1736AA61903 ====


Kenny Cox - Introducing Kenny Cox and The Contemporary Jazz Quintet (1969) {Blue Note 85189 rel 2007}

Kenny Cox - Introducing Kenny Cox and The Contemporary Jazz Quintet (1969) {Blue Note 85189 rel 2007}



===