Subcategories

Kenny Dorham – Una Mas (1963)(Blue Note USA Pressing)(CDP 746515 2)

Posted By: janwal46
Kenny Dorham – Una Mas (1963)(Blue Note USA Pressing)(CDP 746515 2)

Kenny Dorham – Una Mas (1963)(Blue Note USA Pressing)(CDP 746515 2)

Kenny Dorham – Una Mas (1963)(Blue Note USA Pressing)(CDP 746515 2)

Kenny Dorham – Una Mas (1963)(Blue Note USA Pressing)(CDP 746515 2)
1963 | Jazz | EAC RIP | FLAC+CUE+LOG+HQ-Covers(400Dpi) | 233Mb+10Mb

Trumpeter Kenny Dorham was a significant presence in the bop and hard bop scenes, a musician whose distinctive, lyrical style had been apparent from his work in the late '40s with Charlie Parker's quintet. The year 1963 was especially good for him. He had just returned from a trip to Brazil where he had been absorbing the bossa nova, and he had formed a musical partnership with Joe Henderson, a powerful young tenor saxophonist whose rugged sound and coiling lines were an ideal complement to Dorham's often subtler approach. This session is the first in a series of dates that would pair the two, and the fifteen minute "Una Mas," a percolating mix of hard bop sonorities and a samba beat, was the first recorded example of Dorham's distinctive exploration of bossa nova (his "Blue Bossa" would become a jazz standard). Pianist Herbie Hancock, bassist Butch Warren, and drummer Tony Williams all take naturally to the new beat, handling it as effectively as they do "Straight Ahead."

Personnel:

Kenny Dorham - Trumpet
Joe Henderson - Tenor Saxophone
Herbie Hancock - Piano
Butch Warren - Bass
Anthony Williams – Drums

Recorded by Rudy Van Gelder on April 1, 1963

Tracklist:

01 – Una Mas (One More Time)
02 – Straight Ahead
03 – Sao Paulo
04 – If I Ever Would Leave You

Exact Audio Copy V0.99 prebeta 4 from 23. January 2008

EAC extraction logfile from 10. June 2009, 21:16

Kenny Dorham / Una Mas

Used drive : Optiarc DVD RW AD-7173A Adapter: 1 ID: 0

Read mode : Secure
Utilize accurate stream : Yes
Defeat audio cache : No
Make use of C2 pointers : No

Read offset correction : 48
Overread into Lead-In and Lead-Out : No
Fill up missing offset samples with silence : Yes
Delete leading and trailing silent blocks : No
Null samples used in CRC calculations : No
Used interface : Native Win32 interface for Win NT & 2000

Used output format : Internal WAV Routines
Sample format : 44.100 Hz; 16 Bit; Stereo


TOC of the extracted CD

Track | Start | Length | Start sector | End sector
––––––––––––––––––––––––––––-
1 | 0:00.00 | 15:19.20 | 0 | 68944
2 | 15:19.20 | 8:59.18 | 68945 | 109387
3 | 24:18.38 | 7:19.45 | 109388 | 142357
4 | 31:38.08 | 5:07.52 | 142358 | 165434


Range status and errors

Selected range

Filename G:\AVAXHOME\Kenny Dorham - Una Mas (1963)\Kenny Dorham - Una Mas.wav

Peak level 100.0 %
Range quality 100.0 %
Copy CRC C8245BFA
Copy OK

No errors occurred


AccurateRip summary

Track 1 accurately ripped (confidence 2) [F8D635F7]
Track 2 accurately ripped (confidence 2) [AE4595EB]
Track 3 accurately ripped (confidence 2) [304B8F29]
Track 4 accurately ripped (confidence 2) [17478B05]

All tracks accurately ripped

End of status report

RIPPED BY JANWAL46

RS Links: