Subcategories

King Crimson - Live in Newcastle, December 8, 1972 (2019)

Posted By: delpotro
King Crimson - Live in Newcastle, December 8, 1972 (2019)

King Crimson - Live in Newcastle, December 8, 1972 (2019)
EAC Rip | FLAC (tracks+log+.cue) - 350 Mb | MP3 CBR 320 kbps - 166 Mb | 01:12:31
Progressive Rock | Label: Inner Knot

Taken from a cassette recording - with audio restored and mastered by DGM - Live in Newcastle, December 8, 1972 showcases the Larks' Tongues in Aspic line-up shortly before it went on to produce that classic album. Despite its source, this is the best sounding live recording of the incredible Fripp, Wetton, Bruford, Cross and Muir King Crimson configuration.

It’s remarkable, from this distance in time, to imagine that a band with four chart albums (and an official live bootleg) in its history and the reputation such entailed, could embark on a UK tour with a completely new line-up featuring just a single surviving founding member, playing a set consisting of newly composed material, some on the spot improvisations and, usually, an encore of one familiar tune - 21st Century Schizoid Man - and be expected by management and promoters not just to fill halls around the country but to sufficiently entertain the audiences from city to city so as not to get bottled off stage. 

Welcome to King Crimson’s autumn/winter tour of the UK in 1972.
!

The best single live example of Jamie Muir’s short time with this line-up, this was King Crimson confidently playing the material that would, for the most part, make up the classic Larks’ Tongues in Aspic album.

Live in Newcastle, December 8, 1972 is the 48th title in the King Crimson Collectors’ Club series.
Tracklist:
1. Larks’ Tongues in Aspic Part One
2. RF Announcement
3. Book of Saturday (Daily Games)
4. Improv I
5. Exiles
6. Easy Money
7. Improv II
8. The Talking Drum
9. Larks’ Tongues in Apsic Part Two (* incomplete)

Exact Audio Copy V1.0 beta 3 from 29. August 2011

EAC extraction logfile from 30. April 2019, 19:27

King Crimson / Live in Newcastle, December 8, 1972

Used drive : HL-DT-STBD-RE WH12LS39 Adapter: 1 ID: 1

Read mode : Secure
Utilize accurate stream : Yes
Defeat audio cache : Yes
Make use of C2 pointers : No

Read offset correction : 667
Overread into Lead-In and Lead-Out : No
Fill up missing offset samples with silence : Yes
Delete leading and trailing silent blocks : No
Null samples used in CRC calculations : Yes
Used interface : Native Win32 interface for Win NT & 2000
Gap handling : Appended to previous track

Used output format : User Defined Encoder
Selected bitrate : 1024 kBit/s
Quality : High
Add ID3 tag : No
Command line compressor : C:\Program Files (x86)\Exact Audio Copy\FLAC\FLAC.EXE
Additional command line options : -8 -V -T "ARTIST=%artist%" -T "TITLE=%title%" -T "ALBUM=%albumtitle%" -T "DATE=%year%" -T "TRACKNUMBER=%tracknr%" -T "GENRE=%genre%" -T "PERFORMER=%albuminterpret%" -T "COMPOSER=%composer%" %haslyrics%–tag-from-file=LYRICS="%lyricsfile%"%haslyrics% -T "ALBUMARTIST=%albumartist%" -T "DISCNUMBER=%cdnumber%" -T "TOTALDISCS=%totalcds%" -T "TOTALTRACKS=%numtracks%" -T "COMMENT=%comment%" %source% -o %dest%


TOC of the extracted CD

Track | Start | Length | Start sector | End sector
––––––––––––––––––––––––––––-
1 | 0:00.00 | 10:47.08 | 0 | 48532
2 | 10:47.08 | 1:09.18 | 48533 | 53725
3 | 11:56.26 | 2:49.28 | 53726 | 66428
4 | 14:45.54 | 14:48.63 | 66429 | 133091
5 | 29:34.42 | 6:20.20 | 133092 | 161611
6 | 35:54.62 | 9:32.71 | 161612 | 204582
7 | 45:27.58 | 17:27.67 | 204583 | 283174
8 | 62:55.50 | 5:49.15 | 283175 | 309364
9 | 68:44.65 | 3:46.66 | 309365 | 326380


Track 1

Filename E:\Rips\King Crimson\Live in Newcastle, December 8, 1972\01 Larks' Tongues in Aspic Part One.wav

Pre-gap length 0:00:02.00

Peak level 93.6 %
Extraction speed 1.3 X
Track quality 100.0 %
Test CRC FA262331
Copy CRC FA262331
Track not present in AccurateRip database
Copy OK

Track 2

Filename E:\Rips\King Crimson\Live in Newcastle, December 8, 1972\02 RF Announcement.wav

Peak level 16.6 %
Extraction speed 1.0 X
Track quality 100.0 %
Test CRC 25FC8C0C
Copy CRC 25FC8C0C
Track not present in AccurateRip database
Copy OK

Track 3

Filename E:\Rips\King Crimson\Live in Newcastle, December 8, 1972\03 Book of Saturday.wav

Peak level 90.7 %
Extraction speed 1.4 X
Track quality 100.0 %
Test CRC E4D1C666
Copy CRC E4D1C666
Track not present in AccurateRip database
Copy OK

Track 4

Filename E:\Rips\King Crimson\Live in Newcastle, December 8, 1972\04 Improv I.wav

Peak level 98.3 %
Extraction speed 1.8 X
Track quality 100.0 %
Test CRC C76E97B0
Copy CRC C76E97B0
Track not present in AccurateRip database
Copy OK

Track 5

Filename E:\Rips\King Crimson\Live in Newcastle, December 8, 1972\05 Exiles.wav

Peak level 97.8 %
Extraction speed 1.9 X
Track quality 100.0 %
Test CRC 85DB6ED7
Copy CRC 85DB6ED7
Track not present in AccurateRip database
Copy OK

Track 6

Filename E:\Rips\King Crimson\Live in Newcastle, December 8, 1972\06 Easy Money.wav

Peak level 95.2 %
Extraction speed 2.1 X
Track quality 100.0 %
Test CRC EE1EE699
Copy CRC EE1EE699
Track not present in AccurateRip database
Copy OK

Track 7

Filename E:\Rips\King Crimson\Live in Newcastle, December 8, 1972\07 Improv II.wav

Peak level 96.4 %
Extraction speed 2.4 X
Track quality 100.0 %
Test CRC 4EA7607B
Copy CRC 4EA7607B
Track not present in AccurateRip database
Copy OK

Track 8

Filename E:\Rips\King Crimson\Live in Newcastle, December 8, 1972\08 The Talking Drum.wav

Peak level 94.5 %
Extraction speed 2.5 X
Track quality 100.0 %
Test CRC 97FCFB83
Copy CRC 97FCFB83
Track not present in AccurateRip database
Copy OK

Track 9

Filename E:\Rips\King Crimson\Live in Newcastle, December 8, 1972\09 Larks' Tongues in Aspic Part Two (incomplete).wav

Peak level 94.4 %
Extraction speed 2.4 X
Track quality 100.0 %
Test CRC 5B53D59A
Copy CRC 5B53D59A
Track not present in AccurateRip database
Copy OK


None of the tracks are present in the AccurateRip database

No errors occurred

End of status report

–– CUETools DB Plugin V2.1.4

[CTDB TOCID: a4zR0m_yNlIsXxtzNMAFOq6DGT0-] found
Submit result: a4zR0m_yNlIsXxtzNMAFOq6DGT0- has been confirmed
Track | CTDB Status
1 | (13/13) Accurately ripped
2 | (13/13) Accurately ripped
3 | (13/13) Accurately ripped
4 | (13/13) Accurately ripped
5 | (13/13) Accurately ripped
6 | (13/13) Accurately ripped
7 | (13/13) Accurately ripped
8 | (13/13) Accurately ripped
9 | (13/13) Accurately ripped


==== Log checksum 6719ADF37D563E293A0108E203FFFD469BE9AAC8AAE3AB03CDEC91D914B05A37 ====

Thanks to the Original ripper !