Subcategories

King Crimson - Live In Toronto - June 24, 1974 (2011) {2CD King Crimson Collectors' Club CLUB45}

Posted By: ruskaval
King Crimson - Live In Toronto - June 24, 1974 (2011) {2CD King Crimson Collectors' Club CLUB45}

King Crimson - Live In Toronto - June 24, 1974 (2011) {2CD King Crimson Collectors' Club CLUB45}
EAC rip (secure mode) | FLAC (tracks)+CUE+LOG -> 595 Mb | MP3 @320 -> 214 Mb
Full Artwork @ 300 dpi (jpg) -> 27 Mb | 5% repair rar
© 1974, 2011 Robert Fripp | King Crimson Collectors' Club | CLUB45
Rock / Progressive Rock / Art Rock

The Massey Hall King Crimson show is one of the most well known and well documented. There have been several unofficial releases dating back to the eighties including Starless In Toronto (KC-46421/46422) and Starless In Toronto (Discipline DPE-002 1/2), Black Bible (Moonchild 910203) and From Heidelburg to New York (The Great Bootlegger).

Four songs were officially released on The Great Deceiver box set from 1992, “The Golden Walnut,” “The Night Watch,” “Fracture” and “Clueless And Slightly Slack.”

Live In Toronto is the latest Club silver pressed release which has the complete soundboard recording from that night for the first time.

King Crimson - Live In Toronto - June 24, 1974 (2011) {2CD King Crimson Collectors' Club CLUB45}


The tape starts off with just a small portion of the “No Pussyfooting” opening tape before the band stars off with “Larks’ Tongues In Aspic Part II.” While normally used to close a show, it is also quite effective as a set opener. David Cross plays interesting violin melodies over the harsh rhythms.

“Exiles” is a bit rocky at the start with Cross a bit out of tune, but overall sounds very good. Afterwards Fripp tells the audience that they are taping tonight’s show for a new Crimson album in September. As it turned out, nothing from Toronto was used on Red, but material from the Providence show was.

The first long improvisation of the night is “The Golden Walnut.” This was rightly chosen as a representative track from this show for the box set. It’s one of the more unique pieces dreamed up by the band. The John Wetton / Bill Bruford rhythm section play a hard funky beat over which Cross and Fripp lay one of their most catchy and memorable melodies.

After “Fracture” they play their second long improv of the night. Titled “Clueless And Slightly Slack,” it has been singled out for an example of an onstage journey that doesn’t work. Lead by Cross, the melodies are disjointed the whole piece goes nowhere. The segue into “Starless” acts as an admission of defeat by the band.

Crimson end the set with a fantastic “Starless” and the only encore is “21st Century Schizoid Man.”

Live In Toronto is truly an important archive release by King Crimson. They’ve mostly been going down the download route, posting their tapes online and not bothering with silver releases. But this one, despite the sub par show, certainly is interesting enough for a Collector’s Club release. This is available from the DGM website for a reasonable price, definitely worth having.
King Crimson - Live In Toronto - June 24, 1974 (2011) {2CD King Crimson Collectors' Club CLUB45}


Personnel:
David Cross
Robert Fripp
John Wetton
Bill Bruford


This release includes the full recording of the concert edit that appeared on disc four of 'The Great Deceiver' boxed set.

tracklist:
Disc One

01 - Larks' Tongues In Apsic Part II
02 - Lament
03 - Exiles
04 - Improv - The Golden Walnut
05 - The Night Watch
06 - Fracture

King Crimson - Live In Toronto - June 24, 1974 (2011) {2CD King Crimson Collectors' Club CLUB45}


Disc Two
01 - Improv - Clueless and Slightly Slack
02 - Easy Money
03 - Starless
04 - 21st Century Schizoid Man

King Crimson - Live In Toronto - June 24, 1974 (2011) {2CD King Crimson Collectors' Club CLUB45}


Exact Audio Copy V1.0 beta 2 from 29. April 2011

EAC extraction logfile from 6. July 2011, 14:08

King Crimson / KCCC 45 - Live In Toronto, ON 24.06.1974 - CD 1

Used drive : PLEXTOR DVDR PX-L890SA Adapter: 5 ID: 0

Read mode : Secure
Utilize accurate stream : Yes
Defeat audio cache : Yes
Make use of C2 pointers : No

Read offset correction : 6
Overread into Lead-In and Lead-Out : No
Fill up missing offset samples with silence : Yes
Delete leading and trailing silent blocks : No
Null samples used in CRC calculations : Yes
Used interface : Installed external ASPI interface
Gap handling : Appended to previous track

Used output format : User Defined Encoder
Selected bitrate : 896 kBit/s
Quality : High
Add ID3 tag : No
Command line compressor : D:\02 - Programme\EAC\FLAC\FLAC.EXE
Additional command line options : -8 -V -T "ARTIST=%artist%" -T "TITLE=%title%" -T "ALBUM=%albumtitle%" -T "DATE=%year%" -T "TRACKNUMBER=%tracknr%" -T "GENRE=%genre%" -T "COMMENT=%comment%" -T "ALBUMARTIST=%albuminterpret%" %haslyrics%–tag-from-file=LYRICS


TOC of the extracted CD

Track | Start | Length | Start sector | End sector
––––––––––––––––––––––––––––-
1 | 0:00.00 | 6:16.73 | 0 | 28272
2 | 6:16.73 | 5:05.31 | 28273 | 51178
3 | 11:22.29 | 8:22.32 | 51179 | 88860
4 | 19:44.61 | 11:37.73 | 88861 | 141208
5 | 31:22.59 | 4:38.04 | 141209 | 162062
6 | 36:00.63 | 11:11.29 | 162063 | 212416


Track 1

Filename D:\03 - EAC-Rips\King Crimson\2011 - KCCC 45 - Live In Toronto, ON 24.06.1974 - CD 1\01 - Larks' Tongues In Aspic- Part II.wav

Pre-gap length 0:00:02.00

Peak level 100.0 %
Extraction speed 3.7 X
Track quality 100.0 %
Test CRC 3FCCC76D
Copy CRC 3FCCC76D
Track not present in AccurateRip database
Copy OK

Track 2

Filename D:\03 - EAC-Rips\King Crimson\2011 - KCCC 45 - Live In Toronto, ON 24.06.1974 - CD 1\02 - Lament.wav

Peak level 100.0 %
Extraction speed 3.5 X
Track quality 99.9 %
Test CRC 8EA6522A
Copy CRC 8EA6522A
Track not present in AccurateRip database
Copy OK

Track 3

Filename D:\03 - EAC-Rips\King Crimson\2011 - KCCC 45 - Live In Toronto, ON 24.06.1974 - CD 1\03 - Exiles.wav

Peak level 100.0 %
Extraction speed 5.0 X
Track quality 100.0 %
Test CRC 4450D3A2
Copy CRC 4450D3A2
Track not present in AccurateRip database
Copy OK

Track 4

Filename D:\03 - EAC-Rips\King Crimson\2011 - KCCC 45 - Live In Toronto, ON 24.06.1974 - CD 1\04 - Improv - The Golden Walnut.wav

Peak level 100.0 %
Extraction speed 5.8 X
Track quality 100.0 %
Test CRC EC0ED75D
Copy CRC EC0ED75D
Track not present in AccurateRip database
Copy OK

Track 5

Filename D:\03 - EAC-Rips\King Crimson\2011 - KCCC 45 - Live In Toronto, ON 24.06.1974 - CD 1\05 - The Night Watch.wav

Peak level 100.0 %
Extraction speed 5.9 X
Track quality 100.0 %
Test CRC CDF5E8A0
Copy CRC CDF5E8A0
Track not present in AccurateRip database
Copy OK

Track 6

Filename D:\03 - EAC-Rips\King Crimson\2011 - KCCC 45 - Live In Toronto, ON 24.06.1974 - CD 1\06 - Fracture.wav

Peak level 100.0 %
Extraction speed 6.8 X
Track quality 100.0 %
Test CRC 42426276
Copy CRC 42426276
Track not present in AccurateRip database
Copy OK


None of the tracks are present in the AccurateRip database

No errors occurred

End of status report

==== Log checksum FF159B7C1E7629DD30919117E6A2008D26B65BCE8261AD264D0D01CF262CC84C ====

Exact Audio Copy V1.0 beta 2 from 29. April 2011

EAC extraction logfile from 6. July 2011, 14:33

King Crimson / KCCC 45 - Live In Toronto, ON 24.06.1974 - CD 2

Used drive : PLEXTOR DVDR PX-L890SA Adapter: 5 ID: 0

Read mode : Secure
Utilize accurate stream : Yes
Defeat audio cache : Yes
Make use of C2 pointers : No

Read offset correction : 6
Overread into Lead-In and Lead-Out : No
Fill up missing offset samples with silence : Yes
Delete leading and trailing silent blocks : No
Null samples used in CRC calculations : Yes
Used interface : Installed external ASPI interface
Gap handling : Appended to previous track

Used output format : User Defined Encoder
Selected bitrate : 896 kBit/s
Quality : High
Add ID3 tag : No
Command line compressor : D:\02 - Programme\EAC\FLAC\FLAC.EXE
Additional command line options : -8 -V -T "ARTIST=%artist%" -T "TITLE=%title%" -T "ALBUM=%albumtitle%" -T "DATE=%year%" -T "TRACKNUMBER=%tracknr%" -T "GENRE=%genre%" -T "COMMENT=%comment%" -T "ALBUMARTIST=%albuminterpret%" %haslyrics%–tag-from-file=LYRICS


TOC of the extracted CD

Track | Start | Length | Start sector | End sector
––––––––––––––––––––––––––––-
1 | 0:00.00 | 9:52.47 | 0 | 44446
2 | 9:52.47 | 7:11.49 | 44447 | 76820
3 | 17:04.21 | 14:50.07 | 76821 | 143577
4 | 31:54.28 | 9:36.59 | 143578 | 186836


Track 1

Filename D:\03 - EAC-Rips\King Crimson\2011 - KCCC 45 - Live In Toronto, ON 24.06.1974 - CD 2\01 - Improv - Clueless And Slightly Slack.wav

Pre-gap length 0:00:02.00

Peak level 100.0 %
Extraction speed 3.7 X
Track quality 99.9 %
Test CRC 3153BC17
Copy CRC 3153BC17
Track not present in AccurateRip database
Copy OK

Track 2

Filename D:\03 - EAC-Rips\King Crimson\2011 - KCCC 45 - Live In Toronto, ON 24.06.1974 - CD 2\02 - Easy Money.wav

Peak level 100.0 %
Extraction speed 4.8 X
Track quality 100.0 %
Test CRC 58604693
Copy CRC 58604693
Track not present in AccurateRip database
Copy OK

Track 3

Filename D:\03 - EAC-Rips\King Crimson\2011 - KCCC 45 - Live In Toronto, ON 24.06.1974 - CD 2\03 - Starless.wav

Peak level 100.0 %
Extraction speed 5.4 X
Track quality 99.9 %
Test CRC 6DA0B2F1
Copy CRC 6DA0B2F1
Track not present in AccurateRip database
Copy OK

Track 4

Filename D:\03 - EAC-Rips\King Crimson\2011 - KCCC 45 - Live In Toronto, ON 24.06.1974 - CD 2\04 - 21st Century Schizoid Man.wav

Peak level 100.0 %
Extraction speed 6.5 X
Track quality 100.0 %
Test CRC 161CA15A
Copy CRC 161CA15A
Track not present in AccurateRip database
Copy OK


None of the tracks are present in the AccurateRip database

No errors occurred

End of status report

==== Log checksum 88F869A6E90913A03A96F311E7F769E7A5EEFD8DDEFCF2F88BFF0F0FF1AB7465 ====


King Crimson - Live In Toronto - June 24, 1974 (2011) {2CD King Crimson Collectors' Club CLUB45}