Subcategories

Kurt Baker - Brand New Beat (2012) [w/alot Bonus Tracks] UPGRADED

Posted By: Rehabilly
Kurt Baker - Brand New Beat (2012) [w/alot Bonus Tracks] UPGRADED

Kurt Baker - Brand New Beat (2012) [EU Edition - Bonus Tracks]
EAC | FLAC+CUE+LOG or MP3 CBR 320 | 39:12/43:06 min | 279/305 or 112 MB
One of the catchiest ultra-independent recordings of the last year from the former Leftovers' frontman
- Retro Power Pop originals that get better and better with every spin!

Kurt Baker's exciting new full length album on Collector's Club Records. Features original songs produced by Wyatt Funderburk. Album features notable rock n' rollers Geoff Useless (The Guts / The Queers) and Adam Cargin (ex-Screeching Weasel). "This is the album Kurt Baker was born to make. It's nothing you were expecting and everything you've wanted all wrapped up in a tight little package. With his masterpiece upon us, I have to ask…where will Kurt Baker go from here? = 5/5"

– Critical Mass Music Blog




Tracklist:

01. Hit The Ground
02. Don't Go Falling In Love
03. Partied Out
04. She's Not Sorry
05. Everybody Knows
06. She Can Do It All
07. I Don't Wanna Cry
08. Weekend Girls
09. How Many Times
10. Qualified
11. Want You Around (with Dan Vapid) [EU Bonus Track]
12. Emma Stone [EU Bonus Track]
13. I've Tried Everything [Bonus Track for Japan]
14. On The Run [Bonus Track for Japan]
15. City Lights [Bonus Track for Japan]

attention: EU-CD version = 12 tracks / Japanese = 13 tracks total

Exact Audio Copy V1.0 beta 1 from 15. November 2010

EAC extraction logfile from 14. February 2013, 5:17

Kurt Baker / Brand New Beat

Used drive : PIONEER DVD-RW DVR-219L Adapter: 1 ID: 0

Read mode : Secure
Utilize accurate stream : Yes
Defeat audio cache : Yes
Make use of C2 pointers : No

Read offset correction : 6
Overread into Lead-In and Lead-Out : No
Fill up missing offset samples with silence : Yes
Delete leading and trailing silent blocks : No
Null samples used in CRC calculations : Yes
Used interface : Installed external ASPI interface

Used output format : Internal WAV Routines
Sample format : 44.100 Hz; 16 Bit; Stereo


TOC of the extracted CD

Track | Start | Length | Start sector | End sector
––––––––––––––––––––––––––––-
1 | 0:00.00 | 3:30.42 | 0 | 15791
2 | 3:30.42 | 3:16.72 | 15792 | 30563
3 | 6:47.39 | 3:16.70 | 30564 | 45333
4 | 10:04.34 | 3:34.17 | 45334 | 61400
5 | 13:38.51 | 2:13.51 | 61401 | 71426
6 | 15:52.27 | 2:51.70 | 71427 | 84321
7 | 18:44.22 | 3:56.68 | 84322 | 102089
8 | 22:41.15 | 3:18.64 | 102090 | 117003
9 | 26:00.04 | 3:36.38 | 117004 | 133241
10 | 29:36.42 | 3:12.57 | 133242 | 147698
11 | 32:49.24 | 2:52.41 | 147699 | 160639
12 | 35:41.65 | 3:30.15 | 160640 | 176404


Range status and errors

Selected range

Filename C:\_www.AvaxHome.ru\Kurt Baker - Brand New Beat (2012) [French Edition]\Kurt Baker - Brand New Beat (DW-26).wav

Peak level 99.9 %
Extraction speed 0.2 X
Range quality 100.0 %
Test CRC CF111319
Copy CRC CF111319
Copy OK

No errors occurred


AccurateRip summary

Track 1 not present in database
Track 2 not present in database
Track 3 not present in database
Track 4 not present in database
Track 5 not present in database
Track 6 not present in database
Track 7 not present in database
Track 8 not present in database
Track 9 not present in database
Track 10 not present in database
Track 11 not present in database
Track 12 not present in database

None of the tracks are present in the AccurateRip database

End of status report

==== Log checksum 65736842EEC70F72EB8C0A3098CB1A2114C26813F54E29E931EDCCD3A934482E ====


Exact Audio Copy V1.0 beta 1 from 15. November 2010

EAC extraction logfile from 23. September 2013, 22:58

Kurt Baker / Brand New Beat [Japanese Edition]

Used drive : PIONEER DVD-RW DVR-219L Adapter: 5 ID: 0

Read mode : Secure
Utilize accurate stream : Yes
Defeat audio cache : Yes
Make use of C2 pointers : No

Read offset correction : 6
Overread into Lead-In and Lead-Out : No
Fill up missing offset samples with silence : Yes
Delete leading and trailing silent blocks : No
Null samples used in CRC calculations : Yes
Used interface : Installed external ASPI interface

Used output format : Internal WAV Routines
Sample format : 44.100 Hz; 16 Bit; Stereo


TOC of the extracted CD

Track | Start | Length | Start sector | End sector
––––––––––––––––––––––––––––-
1 | 0:00.00 | 3:28.42 | 0 | 15641
2 | 3:28.42 | 3:14.72 | 15642 | 30263
3 | 6:43.39 | 3:14.70 | 30264 | 44883
4 | 9:58.34 | 3:32.17 | 44884 | 60800
5 | 13:30.51 | 2:11.51 | 60801 | 70676
6 | 15:42.27 | 2:49.70 | 70677 | 83421
7 | 18:32.22 | 3:54.68 | 83422 | 101039
8 | 22:27.15 | 3:16.64 | 101040 | 115803
9 | 25:44.04 | 3:34.38 | 115804 | 131891
10 | 29:18.42 | 3:10.57 | 131892 | 146198
11 | 32:29.24 | 3:23.35 | 146199 | 161458
12 | 35:52.59 | 2:50.17 | 161459 | 174225
13 | 38:43.01 | 4:23.06 | 174226 | 193956


Range status and errors

Selected range

Filename C:\_AvaxHome.ru__Rehabilly\Kurt Baker - Brand New Beat (2012) [Japanese Edition]\Kurt Baker - Brand New Beat (POR503-2).wav

Peak level 99.9 %
Extraction speed 0.7 X
Range quality 100.0 %
Test CRC EDAD1172
Copy CRC EDAD1172
Copy OK

No errors occurred


AccurateRip summary

Track 1 not present in database
Track 2 not present in database
Track 3 not present in database
Track 4 not present in database
Track 5 not present in database
Track 6 not present in database
Track 7 not present in database
Track 8 not present in database
Track 9 not present in database
Track 10 not present in database
Track 11 not present in database
Track 12 not present in database
Track 13 not present in database

None of the tracks are present in the AccurateRip database

End of status report

==== Log checksum 48884D90890DE0951B64801C125B8C7C325F6A8F70E6B63426C84CE72121BF67 ====


Produced, Recorded and Engineered by Wyatt Funderburk, February 2011 – August 2012
at Nebulon II (Nashville, TN), Standish Rock City (Standish, ME), Geoff & Jackie’s Rad Party Pad (Portsmouth, NH)
Drums Recorded and Engineered by Landon Arkens at The Blast House (Madison, WI)
Mastered by Landon Arkens at The Blast House (Madison, WI).

• Kurt Baker – Lead Vox, Bass, Guitar
with
• Wyatt Funderburk – Back Up Vox, Lead and Rhythm Guitar, Bass, Keys
• Geoff Palmer – Back Up Vox, Rhythm Guitar
• Kris Rodgers – Back Up Vox, Keys
• Adam Cargin – Drums
and
Josh Malia – Rhythm Guitar on tracks 2, 8
Michael Miek Rodrigue – Lead Guitar on tracks 1, 7, 10

EU Release Date: October 30, 2012
Released in Japan: June 26, 2013
Label: Dirty Witch (France) / Pop Out Records (Japan)
Catalog No.: DW-26 CD / POR 503-2


EU version
The Right choice*
www.bigfile.to/file/knD4ek4HWbbR/KB212BNB964F.rar

all covers.png (48 MB)
www.bigfile.to/file/CpjdJAkJwP2W/KB212BNB467C.rar


Japanese version
The Right choice*
www.bigfile.to/file/3cUvVU2ksZf3/KB212BNB960FJP.rar

all covers.png (58 MB)
www.bigfile.to/file/ZMdgZhhsKMVX/KB212BNB370CJP.rar


Combined MP3's
lossy.mp3
(based on EU ver. & expanded w/extra tracks from JP)
www.bigfile.to/file/gzefbRMR5PFP/KB212BNB20G.rar


* Original CD -> EAC image, embedded cuesheet & more, foobar2000 ready, etc.
(all CUEs, LOGs and other technical info includes in the internal "CD_Support" archive).



^^