Subcategories

Larry Ochs Sax & Drumming Core - Wild Red Yellow (2017)

Posted By: delpotro
Larry Ochs Sax & Drumming Core - Wild Red Yellow (2017)

Larry Ochs Sax & Drumming Core - Wild Red Yellow (2017)
EAC Rip | FLAC (tracks+log+.cue) - 315 Mb | MP3 CBR 320 kbps - 126 Mb | 00:55:05
Avant-Garde Jazz | Label: Rogue Art

Despite a well-documented incident where Larry Ochs was legally challenged for inflicting psychological damage on a festival goer who’d been expecting “jazz” (it’s a great modern parable), he doesn’t have quite that confrontational a vision. Likewise Satoko Fujii and Natsuki Tamura, who have embraced populism as well as the avant-garde. This isn’t music that furrows the brow, but it is not without challenge and its greatest challenge is that it delivers rich complexities as natural forms and allows us to inhabit them for extended periods. This music doesn’t take time; it creates time and suspends our usual functional attitude to it. Brian Morton, excerpt from the liner notes.

Ochs: “These soundscapes are dedicated to film-makers I deeply admire and am (conceptually) inviting to create imagery for the already-created sounds. But more to the point, I’m inviting every listener to close his or her eyes and create images or a story or a place for contemplation within the context of the musical time-lapse.”
Tracklist:
1. Omenicity (23:14)
2. A Sorcerer's Fate (09:13)
3. Wild Red Yellow (22:38)

Exact Audio Copy V1.3 from 2. September 2016

EAC extraction logfile from 14. November 2019, 9:26

Larry Ochs Sax & Drumming Core / Wild Red Yellow

Used drive : MATSHITABD-CMB UJ141EL Adapter: 1 ID: 0

Read mode : Secure
Utilize accurate stream : Yes
Defeat audio cache : Yes
Make use of C2 pointers : No

Read offset correction : 103
Overread into Lead-In and Lead-Out : No
Fill up missing offset samples with silence : Yes
Delete leading and trailing silent blocks : No
Null samples used in CRC calculations : Yes
Used interface : Native Win32 interface for Win NT & 2000
Gap handling : Appended to previous track

Used output format : User Defined Encoder
Selected bitrate : 1024 kBit/s
Quality : High
Add ID3 tag : No
Command line compressor : C:\Program Files\Exact Audio Copy\FLAC\FLAC.EXE
Additional command line options : -8 -V -T "ARTIST=%artist%" -T "TITLE=%title%" -T "ALBUM=%albumtitle%" -T "DATE=%year%" -T "TRACKNUMBER=%tracknr%" -T "GENRE=%genre%" -T "PERFORMER=%albuminterpret%" -T "COMPOSER=%composer%" %haslyrics%–tag-from-file=LYRICS="%lyricsfile%"%haslyrics% -T "ALBUMARTIST=%albumartist%" -T "DISCNUMBER=%cdnumber%" -T "TOTALDISCS=%totalcds%" -T "TOTALTRACKS=%numtracks%" -T "COMMENT=%comment%" %source% -o %dest%


TOC of the extracted CD

Track | Start | Length | Start sector | End sector
––––––––––––––––––––––––––––-
1 | 0:00.00 | 23:14.63 | 0 | 104612
2 | 23:14.63 | 9:13.01 | 104613 | 146088
3 | 32:27.64 | 22:38.06 | 146089 | 247944


Track 1

Filename E:\Larry Ochs Sax & Drumming Core - Wild Red Yellow [FLAC]\01 - Omenicity (For Julie Taymor).wav

Pre-gap length 0:00:02.00

Peak level 98.8 %
Extraction speed 2.2 X
Track quality 99.8 %
Test CRC 71D478E4
Copy CRC 71D478E4
Track not present in AccurateRip database
Copy OK

Track 2

Filename E:\Larry Ochs Sax & Drumming Core - Wild Red Yellow [FLAC]\02 - A Sorcer's Fate.wav

Pre-gap length 0:00:08.00

Peak level 98.8 %
Extraction speed 1.6 X
Track quality 99.7 %
Test CRC 47B468DC
Copy CRC 47B468DC
Track not present in AccurateRip database
Copy OK

Track 3

Filename E:\Larry Ochs Sax & Drumming Core - Wild Red Yellow [FLAC]\03 - Wild Red Yellow (For David Cronenberg).wav

Pre-gap length 0:00:08.00

Peak level 98.8 %
Extraction speed 4.9 X
Track quality 100.0 %
Test CRC B86518CF
Copy CRC B86518CF
Track not present in AccurateRip database
Copy OK


None of the tracks are present in the AccurateRip database

No errors occurred

End of status report

–– CUETools DB Plugin V2.1.6

[CTDB TOCID: lcBlWE4iZT71HJQb7u9kM41qHro-] found
Submit result: lcBlWE4iZT71HJQb7u9kM41qHro- has been confirmed
Track | CTDB Status
1 | (1/1) Accurately ripped
2 | (1/1) Accurately ripped
3 | (1/1) Accurately ripped


==== Log checksum 5657ABE19FDB3B453535BDA6BF761C04A0F93B9657CE52589496F6BA18EED24F ====

Thanks to the Original ripper !