Tags
Language
Tags

Larry Vuckovich - Blue Balkan Then and Now (2002) {Tetrachord Music rec 1980, 2001}

Posted By: ruskaval
Larry Vuckovich - Blue Balkan Then and Now (2002) {Tetrachord Music rec 1980, 2001}

Larry Vuckovich - Blue Balkan Then and Now (2002) {Tetrachord Music rec 1980, 2001}
EAC rip (secure mode) | FLAC (tracks)+CUE+LOG -> 461 Mb | MP3 @320 -> 172 Mb
Full Artwork @ 300 dpi (jpg) -> 15 Mb | 5% repair rar
© 1980, 2002 Tetrachord Music / Inner City | [None] / IC-1096
Jazz / Modal Music / Folk Jazz / Neo-Bop / Piano

Pianist Larry Vuckovich revisits his landmark 1980 recording on this combined reissue and new release. Prefiguring the much-lauded work of Dave Douglas and the Tiny Bell Trio, guitarist Brad Shepik, and even John Zorn, the Yugoslavian-born Vuckovich combines the ethnic melodies and rhythms from his native Balkans with modal jazz. Never as avant-garde as his contemporaries, Vuckovich nonetheless pushes the boundaries of both jazz and folk styles. The original tracks featured the brilliant vibe playing of Bobby Hutcherson, who unfortunately does not reprise his role on the four new pieces.

Nonetheless, with the adroit violinist Eric Golub returning and the capable hands of Tommy Kesecker replacing Hutcherson on marimba, the new tracks on Blue Balkan are superb additions that set this album securely in a modern context. Taken as a whole, these are angular, cubist, post-bop compositions reminiscent of late-'60s McCoy Tyner and John Coltrane. The gypsy-style melodies, authentically believable on their own, work effortlessly with the modal underpinning of Vuckovich's writing, making for an edgy and often incendiary listen. A forgotten connection to world music, fans of Dizzy Gillespie's Latin jazz forays and even the downtown New York Knitting Factory scene would do well to check this out.

Musicians

Piano Larry Vuckovich
Marimba, Vibes Bobby Hutcherson
Viola, Violin Eric Golub
Bass Paul Breslin
Bass John Heard
Drums Eddie Moore
Drums Eddie Marshall
Marimba Tommy Kesecker
Bass Jeff Chambers
Dumbek Vince Delgado

Track Listing

01 Serbo Samba 05:50
02 Blue Balkan 08:46
03 Suite Sanna 08:40
Struttin'
Dance
Beboppin'
04 Belgrade Blues 06:55
05 After Hours 04:07
06 Larry's Dance (Lazino Kolo) 06:06
07 Loving Linda 05:11
08 Adriatic Nights 06:03
09 Motherless Child/O Javore 03:55
10 Changes 04:29
11 In Your Own Sweet Way 06:14
12 Mediterranean Nights 03:53
13 O Javore 03:12

Exact Audio Copy V1.1 from 23. June 2015

EAC extraction logfile from 13. January 2017, 7:37

Larry Vuckovich / Blue Balkan Then and Now

Used drive : MATSHITADVD+-RW SW830 Adapter: 1 ID: 0

Read mode : Secure
Utilize accurate stream : Yes
Defeat audio cache : Yes
Make use of C2 pointers : No

Read offset correction : 6
Overread into Lead-In and Lead-Out : No
Fill up missing offset samples with silence : Yes
Delete leading and trailing silent blocks : No
Null samples used in CRC calculations : Yes
Used interface : Native Win32 interface for Win NT & 2000
Gap handling : Appended to previous track

Used output format : User Defined Encoder
Selected bitrate : 896 kBit/s
Quality : High
Add ID3 tag : No
Command line compressor : C:\Program Files (x86)\Exact Audio Copy\Flac\flac.exe
Additional command line options : -8 -V -T "ARTIST=%artist%" -T "TITLE=%title%" -T "ALBUM=%albumtitle%" -T "DATE=%year%" -T "TRACKNUMBER=%tracknr%" -T "TOTALTRACKS=%numtracks%" -T "GENRE=%genre%" -T "ALBUMARTIST=%albumartist%" -T "ALBUM ARTIST=%albumartist%" -T "COMMENT=EAC Secure Mode, Test & Copy, AccurateRip, FLAC -8" %source%


TOC of the extracted CD

Track | Start | Length | Start sector | End sector
––––––––––––––––––––––––––––-
1 | 0:00.32 | 5:50.55 | 32 | 26336
2 | 5:51.12 | 8:46.70 | 26337 | 65856
3 | 14:38.07 | 8:40.03 | 65857 | 104859
4 | 23:18.10 | 6:55.02 | 104860 | 135986
5 | 30:13.12 | 4:07.73 | 135987 | 154584
6 | 34:21.10 | 6:06.72 | 154585 | 182106
7 | 40:28.07 | 5:11.03 | 182107 | 205434
8 | 45:39.10 | 6:03.00 | 205435 | 232659
9 | 51:42.10 | 3:55.47 | 232660 | 250331
10 | 55:37.57 | 4:29.25 | 250332 | 270531
11 | 60:07.07 | 6:14.73 | 270532 | 298654
12 | 66:22.05 | 3:53.00 | 298655 | 316129
13 | 70:15.05 | 3:10.00 | 316130 | 330379


Track 1

Filename G:\New Rips\Larry Vuckovich - Blue Balkan Then and Now (2002) [FLAC]\01 - Serbo Samba.wav

Pre-gap length 0:00:02.32

Peak level 99.4 %
Extraction speed 4.8 X
Track quality 100.0 %
Test CRC 590EDFB5
Copy CRC 590EDFB5
Accurately ripped (confidence 2) [5A8A781F] (AR v2)
Copy OK

Track 2

Filename G:\New Rips\Larry Vuckovich - Blue Balkan Then and Now (2002) [FLAC]\02 - Blue Balkan.wav

Pre-gap length 0:00:00.72

Peak level 98.6 %
Extraction speed 5.8 X
Track quality 100.0 %
Test CRC 7B7518A2
Copy CRC 7B7518A2
Accurately ripped (confidence 2) [B7F7414F] (AR v2)
Copy OK

Track 3

Filename G:\New Rips\Larry Vuckovich - Blue Balkan Then and Now (2002) [FLAC]\03 - Suite Sanna.wav

Pre-gap length 0:00:01.37

Peak level 99.4 %
Extraction speed 6.6 X
Track quality 100.0 %
Test CRC C27C01C8
Copy CRC C27C01C8
Accurately ripped (confidence 2) [196C4DB2] (AR v2)
Copy OK

Track 4

Filename G:\New Rips\Larry Vuckovich - Blue Balkan Then and Now (2002) [FLAC]\04 - Belgrade Blues.wav

Pre-gap length 0:00:00.45

Peak level 97.9 %
Extraction speed 7.1 X
Track quality 100.0 %
Test CRC 791C3140
Copy CRC 791C3140
Accurately ripped (confidence 2) [60C93E4A] (AR v2)
Copy OK

Track 5

Filename G:\New Rips\Larry Vuckovich - Blue Balkan Then and Now (2002) [FLAC]\05 - After Hours.wav

Pre-gap length 0:00:01.45

Peak level 95.9 %
Extraction speed 5.8 X
Track quality 99.9 %
Test CRC B38C147F
Copy CRC B38C147F
Accurately ripped (confidence 2) [AD196CCD] (AR v2)
Copy OK

Track 6

Filename G:\New Rips\Larry Vuckovich - Blue Balkan Then and Now (2002) [FLAC]\06 - Larry's Dance.wav

Pre-gap length 0:00:00.45

Peak level 98.8 %
Extraction speed 7.8 X
Track quality 100.0 %
Test CRC 89E79A05
Copy CRC 89E79A05
Accurately ripped (confidence 2) [F396FD51] (AR v2)
Copy OK

Track 7

Filename G:\New Rips\Larry Vuckovich - Blue Balkan Then and Now (2002) [FLAC]\07 - Loving Linda.wav

Pre-gap length 0:00:00.40

Peak level 95.7 %
Extraction speed 7.9 X
Track quality 100.0 %
Test CRC 39BD52DB
Copy CRC 39BD52DB
Accurately ripped (confidence 2) [9CF2EF8A] (AR v2)
Copy OK

Track 8

Filename G:\New Rips\Larry Vuckovich - Blue Balkan Then and Now (2002) [FLAC]\08 - Adreiatic Nights.wav

Pre-gap length 0:00:01.48

Peak level 97.3 %
Extraction speed 8.4 X
Track quality 100.0 %
Test CRC 4FBFCEF1
Copy CRC 4FBFCEF1
Accurately ripped (confidence 2) [5D1EDED4] (AR v2)
Copy OK

Track 9

Filename G:\New Rips\Larry Vuckovich - Blue Balkan Then and Now (2002) [FLAC]\09 - Motherless Child-O Javore.wav

Pre-gap length 0:00:01.48

Peak level 85.1 %
Extraction speed 8.1 X
Track quality 100.0 %
Test CRC 506089BA
Copy CRC 506089BA
Accurately ripped (confidence 2) [D6BD7F4C] (AR v2)
Copy OK

Track 10

Filename G:\New Rips\Larry Vuckovich - Blue Balkan Then and Now (2002) [FLAC]\10 - Changes.wav

Pre-gap length 0:00:00.60

Peak level 98.3 %
Extraction speed 8.6 X
Track quality 100.0 %
Test CRC F47C7336
Copy CRC F47C7336
Accurately ripped (confidence 2) [E9E9791F] (AR v2)
Copy OK

Track 11

Filename G:\New Rips\Larry Vuckovich - Blue Balkan Then and Now (2002) [FLAC]\11 - In Your Own Sweet Way.wav

Pre-gap length 0:00:01.47

Peak level 89.7 %
Extraction speed 9.2 X
Track quality 100.0 %
Test CRC 31670BF5
Copy CRC 31670BF5
Accurately ripped (confidence 2) [0CBE38BA] (AR v2)
Copy OK

Track 12

Filename G:\New Rips\Larry Vuckovich - Blue Balkan Then and Now (2002) [FLAC]\12 - Mediterranean Nights.wav

Pre-gap length 0:00:00.63

Peak level 88.7 %
Extraction speed 8.8 X
Track quality 100.0 %
Test CRC 20B3999A
Copy CRC 20B3999A
Accurately ripped (confidence 2) [1303BE45] (AR v2)
Copy OK

Track 13

Filename G:\New Rips\Larry Vuckovich - Blue Balkan Then and Now (2002) [FLAC]\13 - O Javore.wav

Pre-gap length 0:00:01.70

Peak level 72.3 %
Extraction speed 8.9 X
Track quality 100.0 %
Test CRC 2D135BF1
Copy CRC 2D135BF1
Accurately ripped (confidence 2) [5E7BF97D] (AR v2)
Copy OK


All tracks accurately ripped

No errors occurred

End of status report

–– CUETools DB Plugin V2.1.6

[CTDB TOCID: cB0.w6T2wy63JmGGEqC_3TT9kMs-] disk not present in database
Submit result: cB0.w6T2wy63JmGGEqC_3TT9kMs- has been uploaded


==== Log checksum 27ED9333FBBBE9AE10C61237EC6F2210112707D2739A79530F7CB9925AACAB4E ====


Larry Vuckovich - Blue Balkan Then and Now (2002) {Tetrachord Music rec 1980, 2001}

Larry Vuckovich - Blue Balkan Then and Now (2002) {Tetrachord Music rec 1980, 2001}


see more Larry Vuckovich…


===