Subcategories
Tags
Language
Tags

Lawrence Brown - Slide Trombone (1955) {Verve Elite Edition 314 559 930-2 rel 1999}

Posted By: ruskaval
Lawrence Brown - Slide Trombone (1955) {Verve Elite Edition 314 559 930-2 rel 1999}

Lawrence Brown - Slide Trombone (1955) {Verve Elite Edition 314 559 930-2 rel 1999}
EAC rip (secure mode) | FLAC (tracks)+CUE+LOG -> 165 Mb | MP3 @320 -> 110 Mb
Full Artwork @ 300 dpi (jpg) -> 37 Mb | 5% repair rar
© 1955, 1999 Clef / Verve Elite Edition | 314 559 930-2 (Clef MGC 682)
Jazz / Mainstream Jazz / Swing / Standards / Trombone

Lawrence Brown played trombone off and on with Duke Ellington's orchestra for nearly 40 years. Surprisingly, he only led two albums of his own in his entire career, a set for Impulse in 1965, and this album for Clef (now Verve). Heard either as part of a quintet with tenor saxophonist Sam "The Man" Taylor or with a nonet that includes tenor saxophonist Al Cohn and pianist Hank Jones, Brown is in excellent form on the reissue. The music (not too shockingly) often sounds as if it were an Ellington small group, including such numbers as Brown's longtime feature "Rose of the Rio Grande," "Caravan," "You Took Advantage of Me," and "Blues for Duke." The original LP program is joined by two previously unreleased performances ("Time After Time" and "For All We Know"). Excellent mainstream swing of the 1950s.
Lawrence Brown - Slide Trombone (1955) {Verve Elite Edition 314 559 930-2 rel 1999}


Personnel:
Lawrence Brown - trombone, arranger
Sam "The Man" Taylor - tenor sax
Leroy Lovett - piano & vocal
Lloyd Trotman - bass
Louie Bellson - drums
Al Cohn - tenor sax
Arthur Clarke - tenor sax
Danny Bank - baritone sax
Ernie Royal - trumpet
Phillip Sunkel - trumpet
Hank Jones - piano & celeste
Wendell Marshall - bass
Jo Jones - drums
Ralph Burns - arranger, conductor

tracklist:
01 - Rose Of The Rio Grande
02 - Caravan
03 - Down The Street Round The Corner Blues
04 - Where Or When
05 - Just One Of Those Things
06 - Ill Wind
07 - You Took Advantage Of Me
08 - Blues For Duke
09 - Just As Though You Were Here
10 - Autumn In New York
11 - Time After Time
12 - For All We Know

Exact Audio Copy V1.0 beta 3 from 29. August 2011

EAC extraction logfile from 1. June 2014, 15:06

Lawrence Brown / Slide Trombone

Used drive : SONY DVD RW DRU-810A Adapter: 1 ID: 0

Read mode : Secure
Utilize accurate stream : Yes
Defeat audio cache : Yes
Make use of C2 pointers : No

Read offset correction : 618
Overread into Lead-In and Lead-Out : No
Fill up missing offset samples with silence : Yes
Delete leading and trailing silent blocks : No
Null samples used in CRC calculations : Yes
Used interface : Native Win32 interface for Win NT & 2000
Gap handling : Appended to previous track

Used output format : User Defined Encoder
Selected bitrate : 128 kBit/s
Quality : High
Add ID3 tag : No
Command line compressor : C:\Program Files (x86)\Exact Audio Copy\Flac\flac.exe
Additional command line options : -8 -V -T "ARTIST=%artist%" -T "TITLE=%title%" -T "ALBUM=%albumtitle%" -T "DATE=%year%" -T "TRACKNUMBER=%tracknr%" -T "TOTALTRACKS=%numtracks%" -T "GENRE=%genre%" -T "ALBUMARTIST=%albumartist%" -T "ALBUM ARTIST=%albumartist%" -T "COMMENT=EAC Secure Mode, Test & Copy, AccurateRip, FLAC -8" %source%


TOC of the extracted CD

Track | Start | Length | Start sector | End sector
––––––––––––––––––––––––––––-
1 | 0:00.00 | 3:56.52 | 0 | 17751
2 | 3:56.52 | 6:01.00 | 17752 | 44826
3 | 9:57.52 | 4:21.23 | 44827 | 64424
4 | 14:19.00 | 3:21.52 | 64425 | 79551
5 | 17:40.52 | 5:41.23 | 79552 | 105149
6 | 23:22.00 | 3:56.30 | 105150 | 122879
7 | 27:18.30 | 3:07.00 | 122880 | 136904
8 | 30:25.30 | 7:19.57 | 136905 | 169886
9 | 37:45.12 | 3:49.18 | 169887 | 187079
10 | 41:34.30 | 4:48.00 | 187080 | 208679
11 | 46:22.30 | 4:55.10 | 208680 | 230814
12 | 51:17.40 | 4:21.57 | 230815 | 250446


Track 1

Filename F:\New Rips\Lawrence Brown - Slide Trombone (1955) [FLAC]\01 - Rose Of The Rio Grande.wav

Pre-gap length 0:00:02.00

Peak level 84.9 %
Extraction speed 3.7 X
Track quality 99.9 %
Test CRC D7028016
Copy CRC D7028016
Accurately ripped (confidence 4) [3E5DE5B6] (AR v1)
Copy OK

Track 2

Filename F:\New Rips\Lawrence Brown - Slide Trombone (1955) [FLAC]\02 - Caravan.wav

Pre-gap length 0:00:03.55

Peak level 94.8 %
Extraction speed 5.1 X
Track quality 100.0 %
Test CRC 30514688
Copy CRC 30514688
Accurately ripped (confidence 4) [5ECDCDF9] (AR v1)
Copy OK

Track 3

Filename F:\New Rips\Lawrence Brown - Slide Trombone (1955) [FLAC]\03 - Down The Street Round The Corner Blues.wav

Pre-gap length 0:00:03.45

Peak level 93.3 %
Extraction speed 5.4 X
Track quality 100.0 %
Test CRC 6DA2E51D
Copy CRC 6DA2E51D
Accurately ripped (confidence 4) [B2B761B9] (AR v1)
Copy OK

Track 4

Filename F:\New Rips\Lawrence Brown - Slide Trombone (1955) [FLAC]\04 - Where Or When.wav

Pre-gap length 0:00:03.45

Peak level 83.9 %
Extraction speed 5.6 X
Track quality 100.0 %
Test CRC 4183C837
Copy CRC 4183C837
Accurately ripped (confidence 4) [80E0AAB2] (AR v1)
Copy OK

Track 5

Filename F:\New Rips\Lawrence Brown - Slide Trombone (1955) [FLAC]\05 - Just One Of Those Things.wav

Pre-gap length 0:00:03.45

Peak level 87.3 %
Extraction speed 5.6 X
Track quality 99.9 %
Test CRC DF854566
Copy CRC DF854566
Accurately ripped (confidence 4) [E40890C9] (AR v1)
Copy OK

Track 6

Filename F:\New Rips\Lawrence Brown - Slide Trombone (1955) [FLAC]\06 - Ill Wind.wav

Pre-gap length 0:00:05.40

Peak level 100.0 %
Extraction speed 5.5 X
Track quality 99.9 %
Test CRC AFC2CD1E
Copy CRC AFC2CD1E
Accurately ripped (confidence 4) [5A5C0DAF] (AR v1)
Copy OK

Track 7

Filename F:\New Rips\Lawrence Brown - Slide Trombone (1955) [FLAC]\07 - You Took Advantage Of Me.wav

Pre-gap length 0:00:02.48

Peak level 59.5 %
Extraction speed 6.4 X
Track quality 100.0 %
Test CRC 2BF3A85C
Copy CRC 2BF3A85C
Accurately ripped (confidence 4) [B07DAD40] (AR v1)
Copy OK

Track 8

Filename F:\New Rips\Lawrence Brown - Slide Trombone (1955) [FLAC]\08 - Blues For Duke.wav

Pre-gap length 0:00:03.45

Peak level 77.1 %
Extraction speed 7.5 X
Track quality 100.0 %
Test CRC A5687052
Copy CRC A5687052
Accurately ripped (confidence 4) [C3B9CF70] (AR v1)
Copy OK

Track 9

Filename F:\New Rips\Lawrence Brown - Slide Trombone (1955) [FLAC]\09 - Just As Though You Were Here.wav

Pre-gap length 0:00:04.17

Peak level 86.3 %
Extraction speed 7.4 X
Track quality 100.0 %
Test CRC C74B182D
Copy CRC C74B182D
Accurately ripped (confidence 4) [8CEF78CF] (AR v1)
Copy OK

Track 10

Filename F:\New Rips\Lawrence Brown - Slide Trombone (1955) [FLAC]\10 - Autumn In New York.wav

Pre-gap length 0:00:03.43

Peak level 79.2 %
Extraction speed 7.8 X
Track quality 100.0 %
Test CRC 4E583631
Copy CRC 4E583631
Accurately ripped (confidence 3) [4CAE358E] (AR v1)
Copy OK

Track 11

Filename F:\New Rips\Lawrence Brown - Slide Trombone (1955) [FLAC]\11 - Time After Time.wav

Pre-gap length 0:00:10.25

Peak level 84.0 %
Extraction speed 7.0 X
Track quality 99.9 %
Test CRC 61121757
Copy CRC 61121757
Accurately ripped (confidence 4) [B1E17292] (AR v1)
Copy OK

Track 12

Filename F:\New Rips\Lawrence Brown - Slide Trombone (1955) [FLAC]\12 - For All We Know.wav

Pre-gap length 0:00:04.13

Peak level 82.2 %
Extraction speed 8.3 X
Track quality 100.0 %
Test CRC 8FF23141
Copy CRC 8FF23141
Accurately ripped (confidence 4) [90932848] (AR v1)
Copy OK


All tracks accurately ripped

No errors occurred

End of status report

–– CUETools DB Plugin V2.1.3

[CTDB TOCID: amfGuQJ00I4Afv15zmtsn1TmuOw-] found, Submit result: amfGuQJ00I4Afv15zmtsn1TmuOw- has been confirmed
[d2e25b09] (4/4) Accurately ripped


==== Log checksum 9769248BCE03501E7DAE8F0AF5221EC71E1A6325367B0D0F24504A4F24D62783 ====


Lawrence Brown - Slide Trombone (1955) {Verve Elite Edition 314 559 930-2 rel 1999}

Lawrence Brown - Slide Trombone (1955) {Verve Elite Edition 314 559 930-2 rel 1999}


===