Subcategories
Tags
Language
Tags

Lee Konitz - The Complete 1956 Quartets (2010) {2CD Set American Jazz Classics AJC 99017}

Posted By: ruskaval
Lee Konitz - The Complete 1956 Quartets (2010) {2CD Set American Jazz Classics AJC 99017}

Lee Konitz - The Complete 1956 Quartets (2010) {2CD Set American Jazz Classics AJC 99017}
EAC rip (secure mode) | FLAC+CUE+LOG -> 483 Mb | MP3 @320 -> 285 Mb
Full Artwork @ 600 dpi (jpg) -> 150 Mb | 5% repair rar
© 1956, 2010 American Jazz Classics | AJC 99017
Jazz / Cool / Saxophone

2 CD set. The complete contents of the original Atlantic label LPs Worthwhile Konitz & Inside Hi Fi, which contain all of Konitz' 1956 quartet recordings. Among the highlights are the sides featuring Konitz, Jimmy Rowles, Leroy Vinnegar and Shelly Manne. This exact formation would never record again. Other tracks feature Sal Mosca, Billy Bauer, Peter Ind, Arnold Fishkin and Dick Scott. The complete 1957 LP The Real Lee Konitz also originally issued by Atlantic has been added as a bonus. It showcases Konitz in a quartet setting again on most of the album.
In his original liner notes for Lee Konitz' 1957 quintet Very Cool, Nat Hentoff wrote the following : "Lee Konitz, born October 13, 1927, is one of the exceedingly few individualits of his generation on his instrument, the alto saxophone, since the enveloping arrival and posthumus continued command of Charlie Parker. Konitz has an immediately identifiable style and sound, a conception marked by absorbing and frequently daring logic, and an increasing story-telling emotional depth. He as also indicated recently that he is capable of developing a signifiant voice on the tenor saxhophone as well." Hentoff might well have been thinking about the sessions compiled on this CD, on which Lee Konitz sets his alto down and picks up the tenor sax on many tunes (just as Charlie Parker did on occasion). On the first and probably the most interesting session presented here, however, the main instrument is the alto, and Konitz is featured in a quartet setting with a rhythm section that would almost never be repeated : Jimmy Rowles on piano, Leroy Vinnegar on bass and Shelly Manne on drums. These three musicians were only recorded together on two other occasions (both without Konitz). The first of these collaborations consists of two tracks ("A Walkin' Yhing" and "I'm Coming Virginia") taped in Los Angeles on July 22, 1957 for a Benny Carter LP titled Jazz Giant (pianist André Previn replaced Rowles on all of the other tracks from that album. The LP starred Carter with Ben Webster, Frank Rosolino and Barney Kessel.) The second of these collaborations yielded two more tracks '"Tiger Rag" and "Jersey Bounce") recorded in Los Angeles on August 56, 1957, with a very similar front line : Frank Rosolino, Ben Webster, Barney Kessel (who was the leader), Rowles, Vinnegar and Manne. Both songs were included on Kessel's album Let's Cook !, the rest of which featured Kessel in aquintet format with vibraphonist Victor Feldman, pianist Hampton Hawes, Vinnegar and Manne…
Lee Konitz - The Complete 1956 Quartets (2010) {2CD Set American Jazz Classics AJC 99017}


tracklist:
CD1

01. The Nearness of You (Carmichael, Washington) 5:14
02. Like Someone in Love (Burke, VanHeusen) 5:31
03. Don't Explain (Holiday, Herzog) 3:00
04. Some of These Days (Brooks, Rositer) 4:09
05. Close Your Eyes (Petkere) 3:53
06. You're Driving Me Crazy (Donaldson) 5:43
07. Don't Blame Me (Fields, McHugh) 3:43
08. Sweet and Lovely (Arnheim, Tobias, Lemare) 4:03
09. Cork 'N' Bib (Konitz) 5:31
10. Everything Happens to Me (Dennis, Adair) 4:09
11. Kary's Trance (Konitz) 6:12
12. Indiana (Hanley, McDonald) 5:23
13. You'd Be So Nice To Come Home To (Porter) 4:17

CD2
01. Star Eyes (Raye, DePaul) 5:22
02. Nesuhi's Instant (Ind) 5:08
03. I Remember You (Mercer, Schertzinger) 5:03
04. All of Me (Simons, Marks) 5:11
05. Straightaway (Konitz, based on "All of Me") 3:45
06. Foolin' Myself (Waller, Razaf) 4:43
07. You Go To My Head (Coots, Gillespie) 6:26
08. My Melancholy Baby (Burnett, Norton) 4:00
09. Pennies in Minor (Tristano) 8:46
10. Sweet and Lovely (Arnheim, Tobias, Lemare) 2:19
11. Easy Living (Rainger, Robin) 3:45
12. Midway (Konitz, bas on "Indiana") 3:23

Personnel:

[Cd. 1, # 1-7]
Lee Konitz - as & ts [# 5]

Jimmy Rowles - p
Leroy Vinnegar - b
Shelly Manne - dr
Recorded in Los Angeles ; December 21, 1956

[Cd. 1, # 8-11]
Lee Konitz - as & ts [# 11]
Billy Bauer - g
Arnold Fishkin - b
Dick Scott - dr
Recorded in New York ; October 16, 1956

[Cd. 1, # 12-13 & Cd. 2, # 1-4]
Lee Konitz - ts
Sal Mosca - p
Peter Ind - b
Dick Scott - dr
Recorded in New York ; September 26, 1956

[Cd. 2, # 5-12] The Real Lee Konitz

Lee Konitz - as
Don Ferrara - tp [# 9-10 only]
Billy Bauer - g
Peter Ind - b
Dick Scott - dr
Recorded at The Midway Lounge, Pittsburgh ; February 15, 1957

Exact Audio Copy V0.99 prebeta 5 from 4. May 2009

EAC extraction logfile from 14. September 2012, 20:04

Lee Konitz / The Complete 1956 Quartets (CD1)

Used drive : TSSTcorpCD/DVDW TS-H552L Adapter: 6 ID: 0

Read mode : Secure
Utilize accurate stream : Yes
Defeat audio cache : Yes
Make use of C2 pointers : No

Read offset correction : 6
Overread into Lead-In and Lead-Out : No
Fill up missing offset samples with silence : Yes
Delete leading and trailing silent blocks : No
Null samples used in CRC calculations : Yes
Used interface : Native Win32 interface for Win NT & 2000
Gap handling : Appended to previous track

Used output format : User Defined Encoder
Selected bitrate : 1024 kBit/s
Quality : High
Add ID3 tag : No
Command line compressor : C:\Program Files (x86)\FLAC\flac.exe
Additional command line options : -8 -V -T "ARTIST=%a" -T "TITLE=%t" -T "ALBUM=%g" -T "DATE=%y" -T "TRACKNUMBER=%n" -T "GENRE=%m" -T "COMMENT=EAC FLAC -8" %s


TOC of the extracted CD

Track | Start | Length | Start sector | End sector
––––––––––––––––––––––––––––-
1 | 0:00.00 | 5:14.32 | 0 | 23581
2 | 5:14.32 | 5:31.34 | 23582 | 48440
3 | 10:45.66 | 3:00.37 | 48441 | 61977
4 | 13:46.28 | 4:09.45 | 61978 | 80697
5 | 17:55.73 | 3:53.74 | 80698 | 98246
6 | 21:49.72 | 5:43.65 | 98247 | 124036
7 | 27:33.62 | 3:43.58 | 124037 | 140819
8 | 31:17.45 | 4:03.11 | 140820 | 159055
9 | 35:20.56 | 5:31.44 | 159056 | 183924
10 | 40:52.25 | 4:09.05 | 183925 | 202604
11 | 45:01.30 | 6:12.49 | 202605 | 230553
12 | 51:14.04 | 5:23.59 | 230554 | 254837
13 | 56:37.63 | 4:17.14 | 254838 | 274126


Track 1

Filename C:\EAC\Lee Konitz - The Complete 1956 Quartets (2012) [2CD] {American Jazz Classics}\CD1\01 - The Nearness Of You.wav

Pre-gap length 0:00:02.00

Peak level 95.5 %
Track quality 99.9 %
Test CRC 8DACD1CA
Copy CRC 8DACD1CA
Cannot be verified as accurate (confidence 1) [B5C914F5], AccurateRip returned [75355236]
Copy OK

Track 2

Filename C:\EAC\Lee Konitz - The Complete 1956 Quartets (2012) [2CD] {American Jazz Classics}\CD1\02 - Like Someone In Love.wav

Peak level 99.5 %
Track quality 100.0 %
Test CRC 4B115407
Copy CRC 4B115407
Cannot be verified as accurate (confidence 1) [F2EFB97B], AccurateRip returned [288ABCFA]
Copy OK

Track 3

Filename C:\EAC\Lee Konitz - The Complete 1956 Quartets (2012) [2CD] {American Jazz Classics}\CD1\03 - Don't Explain.wav

Peak level 85.0 %
Track quality 100.0 %
Test CRC 275252AE
Copy CRC 275252AE
Cannot be verified as accurate (confidence 1) [6F344DB6], AccurateRip returned [ADBE01A2]
Copy OK

Track 4

Filename C:\EAC\Lee Konitz - The Complete 1956 Quartets (2012) [2CD] {American Jazz Classics}\CD1\04 - Some Of These Days.wav

Peak level 87.1 %
Track quality 100.0 %
Test CRC B1D63E60
Copy CRC B1D63E60
Cannot be verified as accurate (confidence 1) [91451FA9], AccurateRip returned [46764154]
Copy OK

Track 5

Filename C:\EAC\Lee Konitz - The Complete 1956 Quartets (2012) [2CD] {American Jazz Classics}\CD1\05 - Close Your Eyes.wav

Peak level 91.5 %
Track quality 100.0 %
Test CRC 8FEB7A1D
Copy CRC 8FEB7A1D
Cannot be verified as accurate (confidence 1) [773E6047], AccurateRip returned [50AB8835]
Copy OK

Track 6

Filename C:\EAC\Lee Konitz - The Complete 1956 Quartets (2012) [2CD] {American Jazz Classics}\CD1\06 - You're Driving Me Crazy.wav

Peak level 89.2 %
Track quality 100.0 %
Test CRC 844AD52C
Copy CRC 844AD52C
Cannot be verified as accurate (confidence 1) [0F2D6415], AccurateRip returned [158E5BBB]
Copy OK

Track 7

Filename C:\EAC\Lee Konitz - The Complete 1956 Quartets (2012) [2CD] {American Jazz Classics}\CD1\07 - Don't Blame Me.wav

Peak level 89.8 %
Track quality 99.9 %
Test CRC A321EED9
Copy CRC A321EED9
Cannot be verified as accurate (confidence 1) [EC3966B4], AccurateRip returned [1536E0AB]
Copy OK

Track 8

Filename C:\EAC\Lee Konitz - The Complete 1956 Quartets (2012) [2CD] {American Jazz Classics}\CD1\08 - Sweet And Lovely.wav

Peak level 89.7 %
Track quality 100.0 %
Test CRC 2EB1D5AC
Copy CRC 2EB1D5AC
Cannot be verified as accurate (confidence 1) [059018C0], AccurateRip returned [9A5A04CC]
Copy OK

Track 9

Filename C:\EAC\Lee Konitz - The Complete 1956 Quartets (2012) [2CD] {American Jazz Classics}\CD1\09 - Cork 'N' Bib.wav

Peak level 90.8 %
Track quality 100.0 %
Test CRC B413C4A2
Copy CRC B413C4A2
Cannot be verified as accurate (confidence 1) [542831ED], AccurateRip returned [EBDE06DE]
Copy OK

Track 10

Filename C:\EAC\Lee Konitz - The Complete 1956 Quartets (2012) [2CD] {American Jazz Classics}\CD1\10 - Everything Happens To Me.wav

Peak level 93.0 %
Track quality 99.9 %
Test CRC 37D2F89D
Copy CRC 37D2F89D
Cannot be verified as accurate (confidence 1) [DFB96B91], AccurateRip returned [EEFA1242]
Copy OK

Track 11

Filename C:\EAC\Lee Konitz - The Complete 1956 Quartets (2012) [2CD] {American Jazz Classics}\CD1\11 - Kary's Trance.wav

Peak level 90.2 %
Track quality 100.0 %
Test CRC 8311B865
Copy CRC 8311B865
Cannot be verified as accurate (confidence 1) [4165C8DC], AccurateRip returned [27716B21]
Copy OK

Track 12

Filename C:\EAC\Lee Konitz - The Complete 1956 Quartets (2012) [2CD] {American Jazz Classics}\CD1\12 - Indiana.wav

Peak level 95.8 %
Track quality 100.0 %
Test CRC DE8799C8
Copy CRC DE8799C8
Cannot be verified as accurate (confidence 1) [211030E6], AccurateRip returned [90190FCC]
Copy OK

Track 13

Filename C:\EAC\Lee Konitz - The Complete 1956 Quartets (2012) [2CD] {American Jazz Classics}\CD1\13 - You'd Be So Nice To Come Home To.wav

Peak level 100.0 %
Track quality 100.0 %
Test CRC BBD0BF0D
Copy CRC BBD0BF0D
Cannot be verified as accurate (confidence 1) [613B03D2], AccurateRip returned [1F5BE777]
Copy OK


No tracks could be verified as accurate
You may have a different pressing from the one(s) in the database

No errors occurred

End of status report

Exact Audio Copy V0.99 prebeta 5 from 4. May 2009

EAC extraction logfile from 14. September 2012, 22:37

Lee Konitz / The Complete 1956 Quartets (CD2)

Used drive : TSSTcorpCD/DVDW TS-H552L Adapter: 6 ID: 0

Read mode : Secure
Utilize accurate stream : Yes
Defeat audio cache : Yes
Make use of C2 pointers : No

Read offset correction : 6
Overread into Lead-In and Lead-Out : No
Fill up missing offset samples with silence : Yes
Delete leading and trailing silent blocks : No
Null samples used in CRC calculations : Yes
Used interface : Native Win32 interface for Win NT & 2000
Gap handling : Appended to previous track

Used output format : User Defined Encoder
Selected bitrate : 1024 kBit/s
Quality : High
Add ID3 tag : No
Command line compressor : C:\Program Files (x86)\FLAC\flac.exe
Additional command line options : -8 -V -T "ARTIST=%a" -T "TITLE=%t" -T "ALBUM=%g" -T "DATE=%y" -T "TRACKNUMBER=%n" -T "GENRE=%m" -T "COMMENT=EAC FLAC -8" %s


TOC of the extracted CD

Track | Start | Length | Start sector | End sector
––––––––––––––––––––––––––––-
1 | 0:00.00 | 5:22.65 | 0 | 24214
2 | 5:22.65 | 5:08.15 | 24215 | 47329
3 | 10:31.05 | 5:03.64 | 47330 | 70118
4 | 15:34.69 | 5:11.42 | 70119 | 93485
5 | 20:46.36 | 3:45.65 | 93486 | 110425
6 | 24:32.26 | 4:43.59 | 110426 | 131709
7 | 29:16.10 | 6:26.09 | 131710 | 160668
8 | 35:42.19 | 4:00.69 | 160669 | 178737
9 | 39:43.13 | 8:46.29 | 178738 | 218216
10 | 48:29.42 | 2:19.64 | 218217 | 228705
11 | 50:49.31 | 3:45.04 | 228706 | 245584
12 | 54:34.35 | 3:23.09 | 245585 | 260818


Track 1

Filename C:\EAC\Lee Konitz - The Complete 1956 Quartets (2012) [2CD] {American Jazz Classics}\CD2\01 - Star Eyes.wav

Pre-gap length 0:00:02.00

Peak level 99.5 %
Track quality 100.0 %
Test CRC 48CE2D5C
Copy CRC 48CE2D5C
Cannot be verified as accurate (confidence 1) [B38D33A1], AccurateRip returned [363DA28A]
Copy OK

Track 2

Filename C:\EAC\Lee Konitz - The Complete 1956 Quartets (2012) [2CD] {American Jazz Classics}\CD2\02 - Nesuhi's Instant.wav

Peak level 99.1 %
Track quality 100.0 %
Test CRC D7A337DD
Copy CRC D7A337DD
Cannot be verified as accurate (confidence 1) [96057BDA], AccurateRip returned [DCE1BDA9]
Copy OK

Track 3

Filename C:\EAC\Lee Konitz - The Complete 1956 Quartets (2012) [2CD] {American Jazz Classics}\CD2\03 - I Remember You.wav

Peak level 100.0 %
Track quality 99.9 %
Test CRC B1896E0F
Copy CRC B1896E0F
Cannot be verified as accurate (confidence 1) [C8D7D4E0], AccurateRip returned [13898011]
Copy OK

Track 4

Filename C:\EAC\Lee Konitz - The Complete 1956 Quartets (2012) [2CD] {American Jazz Classics}\CD2\04 - All Of Me.wav

Peak level 96.3 %
Track quality 100.0 %
Test CRC D2EB2717
Copy CRC D2EB2717
Cannot be verified as accurate (confidence 1) [D33ACDC8], AccurateRip returned [3FFE1C79]
Copy OK

Track 5

Filename C:\EAC\Lee Konitz - The Complete 1956 Quartets (2012) [2CD] {American Jazz Classics}\CD2\05 - Straightaway.wav

Peak level 95.5 %
Track quality 100.0 %
Test CRC 0A4540C6
Copy CRC 0A4540C6
Cannot be verified as accurate (confidence 1) [F1039FC4], AccurateRip returned [6F42FAAC]
Copy OK

Track 6

Filename C:\EAC\Lee Konitz - The Complete 1956 Quartets (2012) [2CD] {American Jazz Classics}\CD2\06 - Foolin' Myself.wav

Peak level 97.7 %
Track quality 100.0 %
Test CRC 819A27BE
Copy CRC 819A27BE
Cannot be verified as accurate (confidence 1) [6FE6914A], AccurateRip returned [97EC214E]
Copy OK

Track 7

Filename C:\EAC\Lee Konitz - The Complete 1956 Quartets (2012) [2CD] {American Jazz Classics}\CD2\07 - You Go To My Head.wav

Peak level 85.8 %
Track quality 100.0 %
Test CRC C0F29F10
Copy CRC C0F29F10
Cannot be verified as accurate (confidence 1) [54F13FF6], AccurateRip returned [1C29BE35]
Copy OK

Track 8

Filename C:\EAC\Lee Konitz - The Complete 1956 Quartets (2012) [2CD] {American Jazz Classics}\CD2\08 - My Melancholy Baby.wav

Peak level 87.5 %
Track quality 100.0 %
Test CRC 0E43924E
Copy CRC 0E43924E
Cannot be verified as accurate (confidence 1) [7AA97C80], AccurateRip returned [AAC9A4AB]
Copy OK

Track 9

Filename C:\EAC\Lee Konitz - The Complete 1956 Quartets (2012) [2CD] {American Jazz Classics}\CD2\09 - Pennies In Minor.wav

Peak level 98.8 %
Track quality 100.0 %
Test CRC DB0DB7C1
Copy CRC DB0DB7C1
Cannot be verified as accurate (confidence 1) [32AA2942], AccurateRip returned [7CE913F2]
Copy OK

Track 10

Filename C:\EAC\Lee Konitz - The Complete 1956 Quartets (2012) [2CD] {American Jazz Classics}\CD2\10 - Sweet And Lovely.wav

Peak level 92.6 %
Track quality 100.0 %
Test CRC A6B22FCD
Copy CRC A6B22FCD
Cannot be verified as accurate (confidence 1) [BE4D87B3], AccurateRip returned [1F1F44F2]
Copy OK

Track 11

Filename C:\EAC\Lee Konitz - The Complete 1956 Quartets (2012) [2CD] {American Jazz Classics}\CD2\11 - Easy Living.wav

Peak level 88.7 %
Track quality 100.0 %
Test CRC EC514ED4
Copy CRC EC514ED4
Cannot be verified as accurate (confidence 1) [CED1930B], AccurateRip returned [8D3621D2]
Copy OK

Track 12

Filename C:\EAC\Lee Konitz - The Complete 1956 Quartets (2012) [2CD] {American Jazz Classics}\CD2\12 - Midway.wav

Peak level 92.5 %
Track quality 100.0 %
Test CRC 4389CDA8
Copy CRC 4389CDA8
Cannot be verified as accurate (confidence 1) [B4FDFAEB], AccurateRip returned [9189C585]
Copy OK


No tracks could be verified as accurate
You may have a different pressing from the one(s) in the database

No errors occurred

End of status report


Lee Konitz - The Complete 1956 Quartets (2010) {2CD Set American Jazz Classics AJC 99017}

Lee Konitz - The Complete 1956 Quartets (2010) {2CD Set American Jazz Classics AJC 99017}



===