Subcategories

Lee Konitz - Motion (1961)

Posted By: intothe
Lee Konitz - Motion (1961)

Lee Konitz - Motion (1961)
Jazz | EAC rip (FLAC+CUE+LOG) + MP3 (320K/s) | 255 + 87 MB
Verve (2003) | 37:59 | RAR with 5% recovery | full scans


EAC extraction logfile from 15. December 2009, 14:57

Lee Konitz / Motion

Used drive : _NEC DVD_RW ND-3500AG Adapter: 0 ID: 0

Read mode : Secure
Utilize accurate stream : Yes
Defeat audio cache : Yes
Make use of C2 pointers : No

Read offset correction : 48
Overread into Lead-In and Lead-Out : No
Fill up missing offset samples with silence : Yes
Delete leading and trailing silent blocks : No
Null samples used in CRC calculations : Yes
Used interface : Native Win32 interface for Win NT & 2000

Used output format : User Defined Encoder
Selected bitrate : 768 kBit/s
Quality : High
Add ID3 tag : No
Command line compressor : C:\Program Files\Exact Audio Copy\FLAC\FLAC.EXE
Additional command line options : -6 -V -T "ARTIST=%a" -T "TITLE=%t" -T "ALBUM=%g" -T "DATE=%y" -T "TRACKNUMBER=%n" -T "GENRE=%m" -T "COMMENT=%e" %s -o %d


TOC of the extracted CD

Track | Start | Length | Start sector | End sector
––––––––––––––––––––––––––––-
1 | 0:00.00 | 4:30.55 | 0 | 20304
2 | 4:30.55 | 7:41.11 | 20305 | 54890
3 | 12:11.66 | 7:01.31 | 54891 | 86496
4 | 19:13.22 | 10:45.21 | 86497 | 134892
5 | 29:58.43 | 8:01.20 | 134893 | 170987


Range status and errors

Selected range

Filename J:\eMusic\Rip\Lee Konitz - Motion.wav

Peak level 100.0 %
Range quality 100.0 %
Test CRC FB86CF29
Copy CRC FB86CF29
Copy OK

No errors occurred


AccurateRip summary

Track 1 accurately ripped (confidence 7) [0C4D0A3E]
Track 2 accurately ripped (confidence 7) [0CA35E50]
Track 3 accurately ripped (confidence 7) [C3249584]
Track 4 accurately ripped (confidence 7) [580EFB18]
Track 5 accurately ripped (confidence 7) [1CCF83BA]

All tracks accurately ripped

End of status report


This very spontaneous LP (altoist Lee Konitz had never played before in a trio with bassist Sonny Dallas and drummer Elvin Jones) is quite successful and enjoyable. Konitz and his trio perform five familiar standards, stretching out on such tunes as "I Remember You," "All of Me" and "You'd Be So Nice to Come Home To." The music is searching but melodic, exploratory yet accessible. This is one of Konitz's better albums from the era and is long overdue to be reissued on CD. - by Scott Yanow, AMG

Tracks:
1. I Remember You (Johnny Mercer/Victor Schertzinger) 4:30
2. All Of Me (Gerald Marks/Seymour Simons) 7:41
3. Foolin' Myself (Jack Lawrence/Peter Tinturin) 7:01
4. You'd Be So Nice To Come Home To (Cole Porter) 10:45
5. I'll Remember April (Gene DePaul/Patricia Johnston/Pat Johnston/Don Raye) 8:00

Personnel:
Lee Konitz (Alto Saxophone)
Sonny Dallas (Double Bass)
Elvin Jones (Drums)

FLAC
MP3