Subcategories

Les Siècles, Ensemble Aedes & François-Xavier Roth - Ravel: Daphnis et Chloé (Live) (2017)

Posted By: Domestos
Les Siècles, Ensemble Aedes & François-Xavier Roth - Ravel: Daphnis et Chloé (Live) (2017)

Les Siècles, Ensemble Aedes & François-Xavier Roth - Ravel: Daphnis et Chloé (Live) (2017)
EAC Rip | FLAC (image+.cue, log) ~ 239.69 Mb | 55:01 | Scans included
Classical, Orchestral | Label: Harmonia Mundi (HMM 905280)

'The arrival of an orchestra like Les Siècles on the harmonia mundi label is entirely logical: ever since it was founded by François-Xavier Roth in 2003, its musicians (mostly belonging to the new generation) have succeeded in placing several centuries of musical creation in perspective by playing the works they tackle on precisely the instruments used at the time of their premiere – without the slightest concession. The result is quite simple dazzling: never, since it was first heard, has Daphnis et Chloé displayed such a shimmering sound, revealing an infinity of details without ever losing sight of the subtle beauty of the most French of the great ‘Ballets Russes’.‘At this moment in the history of music, Ravel raised the French “Impressionist” orchestral style to a sort of apogee – in a sense it is the last great comédie-ballet in the history of French music’ (François-Xavier Roth).

'Daphnis and Chloé' is conceived as a ballet in one act and three parts, and tells the story of the love between the shepherd Daphnis and the shepherdess Chloé. A warlike tableau is framed by two pastoral ones: in the first, Daphnis and Chloé acknowledge their mutual love following a dance contest that provokes the jealousy of each of them in turn.

The interruption of a group of pirates, who abduct Chloé, puts an end to the rejoicing. The second tableau depicts the pirate camp; the captive girl is commanded to dance for her abductors. In the final tableau, Chloé is restored to Daphnis through a miracle of the god Pan, whom the nymphs have called on for help. After miming the tale of Pan and Syrinx, the young lovers let their joy burst forth in a General Dance of dazzling orgiastic virtuosity.

The orchestral forces are the largest Ravel ever employed and he adds a mixed chorus that sometimes hums and sometimes sings. As we have come to expect, François-Xavier Roth, in his début for harmonia mundi, has gone through Ravel's much-amended score with a fine-tooth comb and subsequently showed himself capable, in a ‘historically informed’ performance, of reproducing with the musicians of Les Siècles all the transparency and stylistic precision one could wish for in Ravel’s masterpiece.

"Daphnis et Chloé is part of the large-scale project we embarked on with Les Siècles in 2009: the odyssey of the Ballets Russes. To celebrate the centenary of that incredible artistic adventure, we wanted to reconstruct the Parisian orchestra that premiered these works in order to restore their original colours…As with each work of the Ballets Russes that we’ve played so far, we noticed just how remarkably the instruments of Ravel’s time, those French-built instruments typical of the early twentieth century, do justice to this music and make it meaningful!" FXR ….

Track List:
Daphnis et Chloé, M. 57, Acte I, Première partie
1 Introduction (Live) 03:09
2 Danse religieuse (Live) 05:15
3 Vif - Danse générale (Live) 03:10
4 Danse grotesque de Dorcon - Scène (Live) 01:51
5 Danse légère et gracieuse de Daphnis (Live) 02:54
6 Lent [devant le groupe radieux que forment Daphnis et Chloé enlacés] (Live) 01:42
7 Danse de Lycéion (Live) 01:30
8 Scène [Les Pirates] (Live) 01:46
9 Nocturne [Une lumière irréelle enveloppe le paysage] (Live) 01:32
10 Danse lente et mystérieuse des Nymphes (Live) 02:47
11 Interlude (Live) 02:55

Daphnis et Chloé, M. 57, Acte I, Deuxième partie
12 Introduction - Danse guerrière (Live) 04:31
13 Danse suppliante de Chloé (Live) 03:37
14 Lent [Soudain l'atmosphère semble chargée d'éléments insolites] (Live) 02:19

Daphnis et Chloé, M. 57, Acte I, Troisième partie
15 Lever du jour - Scène (Live) 05:38
16 Pantomime [Daphnis & Chloé miment l'aventure de Pan et de Syrinx] (Live) 01:20
17 Très lent [Chloé figure par sa danse les accents de la flûte] (Live) 02:34
18 Chloé tombe dans les bras de Daphnis (Live) 02:19
19 Animé - Danse générale (Live) 04:00

Les Siècles, Ensemble Aedes & François-Xavier Roth - Ravel: Daphnis et Chloé (Live) (2017)

Exact Audio Copy V1.3 from 2. September 2016

EAC extraction logfile from 25. August 2017, 22:14

Les Siècles, François-Xavier Roth / Ravel - Daphnis et Chloé

Used drive : TSSTcorpCD/DVDW SH-S182M Adapter: 1 ID: 1

Read mode : Secure
Utilize accurate stream : Yes
Defeat audio cache : Yes
Make use of C2 pointers : No

Read offset correction : 6
Overread into Lead-In and Lead-Out : No
Fill up missing offset samples with silence : Yes
Delete leading and trailing silent blocks : No
Null samples used in CRC calculations : Yes
Used interface : Native Win32 interface for Win NT & 2000

Used output format : User Defined Encoder
Selected bitrate : 128 kBit/s
Quality : High
Add ID3 tag : No
Command line compressor : C:\Program Files (x86)\Exact Audio Copy\Flac\flac.exe
Additional command line options : -V -8 -T "Date=%year%" -T "Genre=%genre%" %source%


TOC of the extracted CD

Track | Start | Length | Start sector | End sector
––––––––––––––––––––––––––––-
1 | 0:00.00 | 3:09.64 | 0 | 14238
2 | 3:09.64 | 5:15.10 | 14239 | 37873
3 | 8:24.74 | 3:10.61 | 37874 | 52184
4 | 11:35.60 | 1:51.47 | 52185 | 60556
5 | 13:27.32 | 2:54.39 | 60557 | 73645
6 | 16:21.71 | 1:42.11 | 73646 | 81306
7 | 18:04.07 | 1:30.58 | 81307 | 88114
8 | 19:34.65 | 1:46.60 | 88115 | 96124
9 | 21:21.50 | 1:32.25 | 96125 | 103049
10 | 22:54.00 | 2:47.46 | 103050 | 115620
11 | 25:41.46 | 2:55.52 | 115621 | 128797
12 | 28:37.23 | 4:31.07 | 128798 | 149129
13 | 33:08.30 | 3:37.38 | 149130 | 165442
14 | 36:45.68 | 2:19.61 | 165443 | 175928
15 | 39:05.54 | 5:38.43 | 175929 | 201321
16 | 44:44.22 | 1:20.17 | 201322 | 207338
17 | 46:04.39 | 2:34.70 | 207339 | 218958
18 | 48:39.34 | 2:19.19 | 218959 | 229402
19 | 50:58.53 | 4:00.30 | 229403 | 247432


Range status and errors

Selected range

Filename C:\temp\Ravel - Daphnis et Chloe - Roth\Ravel - Daphnis et Chloe.wav

Peak level 99.9 %
Extraction speed 6.9 X
Range quality 99.9 %
Test CRC 2F8FB79F
Copy CRC 2F8FB79F
Copy OK

No errors occurred


AccurateRip summary

Track 1 accurately ripped (confidence 1) [05AC2587] (AR v2)
Track 2 accurately ripped (confidence 1) [7D60A196] (AR v2)
Track 3 accurately ripped (confidence 1) [3ED17301] (AR v2)
Track 4 accurately ripped (confidence 1) [C9979F6A] (AR v2)
Track 5 accurately ripped (confidence 1) [0DD48D60] (AR v2)
Track 6 accurately ripped (confidence 1) [CACA30CD] (AR v2)
Track 7 accurately ripped (confidence 1) [56E8661D] (AR v2)
Track 8 accurately ripped (confidence 1) [FAADCCBF] (AR v2)
Track 9 accurately ripped (confidence 1) [B7D82299] (AR v2)
Track 10 accurately ripped (confidence 1) [059E04F1] (AR v2)
Track 11 accurately ripped (confidence 1) [09076490] (AR v2)
Track 12 accurately ripped (confidence 1) [ABEBAF27] (AR v2)
Track 13 accurately ripped (confidence 1) [49730349] (AR v2)
Track 14 accurately ripped (confidence 1) [1B1921E7] (AR v2)
Track 15 accurately ripped (confidence 1) [FD2F55DB] (AR v2)
Track 16 accurately ripped (confidence 1) [1626A8E4] (AR v2)
Track 17 accurately ripped (confidence 1) [EC5464AE] (AR v2)
Track 18 accurately ripped (confidence 1) [AC7EDB63] (AR v2)
Track 19 accurately ripped (confidence 1) [E98890D0] (AR v2)

All tracks accurately ripped

End of status report

==== Log checksum 4D131710336399D32A6EAAF6CEB788CD46FA9FF6012EBC562CA10773E47BA3EA ====

All thanks go to the A-Z

More Music in My Blog
Follow My RSS Channel