Tags
Language
Tags
March 2024
Su Mo Tu We Th Fr Sa
25 26 27 28 29 1 2
3 4 5 6 7 8 9
10 11 12 13 14 15 16
17 18 19 20 21 22 23
24 25 26 27 28 29 30
31 1 2 3 4 5 6

Les Paul - The Complete Decca Trios - Plus, 1936-1947 (1997) {2CD Set Decca--MCA Records MCAD2-11708}

Posted By: ruskaval
Les Paul - The Complete Decca Trios - Plus, 1936-1947 (1997) {2CD Set Decca--MCA Records MCAD2-11708}

Les Paul - The Complete Decca Trios - Plus, 1936-1947 (1997) {2CD Set Decca–MCA Records MCAD2-11708}
EAC rip (secure mode) | FLAC (tracks)+CUE+LOG -> 496 Mb | MP3 @320 -> 337 Mb
Full Artwork @ 600 dpi (jpg) -> 193 Mb | 5% repair rar
© 1936-47, 1997 Decca / MCA Records | MCAD2-11708
Jazz / Swing / Guitar

More than just a roundup of the Les Paul Trio's Decca recordings – which by themselves wouldn't add up to a single CD, let alone two – this 50-track set is a bewilderingly diverse compendium of Paul's adventures in show business prior to his string of hits with Mary Ford. In doing so, MCA has made amends for at least four decades of neglect, unearthing ten previously unreleased tracks as part of the deal.
Les Paul - The Complete Decca Trios - Plus, 1936-1947 (1997) {2CD Set Decca--MCA Records MCAD2-11708}

The set begins with six of Paul's earliest sides backing salacious blues shouter Georgia White on acoustic guitar, and then there are four extremely rare sides of Paul doing his hillbilly Rhubarb Red act, tootling on harmonica, strumming rhythm guitar, and singing in a honeyed voice. Throughout the collection, there are extensive samplings of Paul backing several top singers from the mainstream of '40s pop – Bing Crosby, the Andrews Sisters, Dick Haymes, Helen Forrest, and the Delta Rhythm Boys – his clever, caressing guitar obligatos enhancing the vocals and foreshadowing his ballad work with Ford. The trio sides form the heart of the set, but here again, there is a lot of diversity. Jazz sides like "Blue Skies" and "Dream Dust" are showcases for Paul's extraordinary melodic gift and speed, and the newly released outtakes reveal his streak of perfectionism. But there are also several sweetly sedate Hawaiian tunes and a couple of nifty country & western workouts, "Guitar Boogie" and "Steel Guitar Rag," that integrate his jazz licks into the picture. Although the sound is slightly distorted in spots and short on bass – the "noise reduction" gremlins at MCA are at it again – this double-disc set is still a treasure chest for Les Paul collectors.
Les Paul - The Complete Decca Trios - Plus, 1936-1947 (1997) {2CD Set Decca--MCA Records MCAD2-11708}


Personnel: featuring Les Paul, Bing Crosby, Terry Shand, Cal Gooden, Georgia White, Bob Meyer, Dick Haymes, Jud DeNaut, Walter Wechsler, Tom Todd, Laverne Andrews, Maxene Andrews, Patty Andrews, Abe Siegel, Clint Nordquist, Bob Armstrong, Helen Forrest, Irv Kluger, Clint Neagley, Bob Lawson, etc.

tracklist:

CD1

01 - New Dupree Blues
02 - Daddy Let Me Lay It On You
03 - I Just Want Your Stingaree
04 - Black Rider
05 - I'll Keep Sittin' On It (If I Can't Sell It)
06 - Trouble In Mind
07 - Just Because
08 - Just Because Answer
09 - Deep Elem Blues #2
10 - Deep Elem Blues
11 - Cindy
12 - Flipino Hombre
13 - Dream Dust
14 - Begin The Beguine (1)
15 - Dark Eyes
16 - Blues Skies (1)
17 - Blues Skies (2)
18 - Begin The Beguine (2)
19 - Dream Dust (2)
20 - Dark Eyes (2)
21 - It's Been A Long, Long Time
22 - Whose Dream Are You
23 - Hawaiian Paradise
24 - My Isle Of Gloden Dreams
25 - Spellbound
26 - Everybody Knew But Me

CD2
01 - Baby, What You Do For For Me
02 - Everybody Knew But Me
03 - Song Of The Islands
04 - Sweet Leilani
05 - Kings Serenade
06 - To You, Sweetheart, Aloha
07 - Sweet Hawaiian Moonlight
08 - Aloha Oe
09 - Pretending
10 - Gotta Get Me Somebody To Love
11 - One-Sided Affair
12 - What Would It Take
13 - Rumors Are Flying
14 - It's A Pity To Say Goodnight
15 - Steel Guitar Rag
16 - Guitar Boogie (1)
17 - Guitar Boogie (2)
18 - Caravan
19 - Somebody Loves Me
20 - Gotta Get Me Somebody To Love
21 - What Am I Gonna Do About You
22 - Drifting And Dreaming (Sweet Paradise)
23 - What Are You Doing For New Years Eve
24 - My Future Just Passed

Exact Audio Copy V0.99 prebeta 5 from 4. May 2009

EAC extraction logfile from 23. June 2010, 5:11

Les Paul / Complete Trios - Plus (1936-1947) - Disc 1 of 2

Used drive : HL-DT-STDVDRAM GSA-H42L Adapter: 4 ID: 0

Read mode : Secure
Utilize accurate stream : Yes
Defeat audio cache : Yes
Make use of C2 pointers : No

Read offset correction : 667
Overread into Lead-In and Lead-Out : No
Fill up missing offset samples with silence : Yes
Delete leading and trailing silent blocks : No
Null samples used in CRC calculations : Yes
Used interface : Native Win32 interface for Win NT & 2000
Gap handling : Appended to previous track

Used output format : User Defined Encoder
Selected bitrate : 320 kBit/s
Quality : High
Add ID3 tag : No
Command line compressor : C:\Program Files (x86)\Exact Audio Copy\Flac\flac.exe
Additional command line options : -V -8 -T "artist=%a" -T "title=%t" -T "album=%g" -T "date=%y" -T "tracknumber=%n" -T "genre=%m" %s


TOC of the extracted CD

Track | Start | Length | Start sector | End sector
––––––––––––––––––––––––––––-
1 | 0:00.00 | 3:04.05 | 0 | 13804
2 | 3:04.05 | 2:43.32 | 13805 | 26061
3 | 5:47.37 | 2:38.38 | 26062 | 37949
4 | 8:26.00 | 2:27.64 | 37950 | 49038
5 | 10:53.64 | 2:57.56 | 49039 | 62369
6 | 13:51.45 | 2:36.05 | 62370 | 74074
7 | 16:27.50 | 2:54.67 | 74075 | 87191
8 | 19:22.42 | 2:50.08 | 87192 | 99949
9 | 22:12.50 | 2:56.47 | 99950 | 113196
10 | 25:09.22 | 2:55.65 | 113197 | 126386
11 | 28:05.12 | 2:22.55 | 126387 | 137091
12 | 30:27.67 | 2:43.43 | 137092 | 149359
13 | 33:11.35 | 3:02.15 | 149360 | 163024
14 | 36:13.50 | 3:03.67 | 163025 | 176816
15 | 39:17.42 | 2:31.23 | 176817 | 188164
16 | 41:48.65 | 2:38.15 | 188165 | 200029
17 | 44:27.05 | 2:37.07 | 200030 | 211811
18 | 47:04.12 | 3:01.33 | 211812 | 225419
19 | 50:05.45 | 2:53.52 | 225420 | 238446
20 | 52:59.22 | 2:41.28 | 238447 | 250549
21 | 55:40.50 | 2:58.47 | 250550 | 263946
22 | 58:39.22 | 3:14.73 | 263947 | 278569
23 | 61:54.20 | 3:04.00 | 278570 | 292369
24 | 64:58.20 | 2:43.62 | 292370 | 304656
25 | 67:42.07 | 3:08.00 | 304657 | 318756
26 | 70:50.07 | 3:10.53 | 318757 | 333059


Track 1

Filename C:\EAC rips\Les Paul - - Complete Trios - Plus (1936-1947) - Disc 1 of 2\01 - New Dupree Blues.wav

Pre-gap length 0:00:02.00

Peak level 98.6 %
Track quality 99.9 %
Test CRC 343C7BAB
Copy CRC 343C7BAB
Accurately ripped (confidence 4) [CC346113]
Copy OK

Track 2

Filename C:\EAC rips\Les Paul - - Complete Trios - Plus (1936-1947) - Disc 1 of 2\02 - Daddy Let Me Lay It On You.wav

Pre-gap length 0:00:02.46

Peak level 94.2 %
Track quality 100.0 %
Test CRC 49B76191
Copy CRC 49B76191
Accurately ripped (confidence 4) [95F39A5B]
Copy OK

Track 3

Filename C:\EAC rips\Les Paul - - Complete Trios - Plus (1936-1947) - Disc 1 of 2\03 - I Just Want Your Stingaree.wav

Pre-gap length 0:00:02.62

Peak level 96.6 %
Track quality 100.0 %
Test CRC 1397E1B4
Copy CRC 1397E1B4
Accurately ripped (confidence 4) [768F73B8]
Copy OK

Track 4

Filename C:\EAC rips\Les Paul - - Complete Trios - Plus (1936-1947) - Disc 1 of 2\04 - Black Rider.wav

Pre-gap length 0:00:02.53

Peak level 98.0 %
Track quality 100.0 %
Test CRC A9393922
Copy CRC A9393922
Accurately ripped (confidence 4) [1C170C25]
Copy OK

Track 5

Filename C:\EAC rips\Les Paul - - Complete Trios - Plus (1936-1947) - Disc 1 of 2\05 - I'll Keep Sittin' On It (If I Can't Sell It).wav

Pre-gap length 0:00:02.52

Peak level 92.9 %
Track quality 100.0 %
Test CRC A99762E4
Copy CRC A99762E4
Accurately ripped (confidence 4) [1DD34F1B]
Copy OK

Track 6

Filename C:\EAC rips\Les Paul - - Complete Trios - Plus (1936-1947) - Disc 1 of 2\06 - Trouble In Mind.wav

Pre-gap length 0:00:02.57

Peak level 93.9 %
Track quality 99.9 %
Test CRC 0FAB198D
Copy CRC 0FAB198D
Accurately ripped (confidence 4) [4AADA3DD]
Copy OK

Track 7

Filename C:\EAC rips\Les Paul - - Complete Trios - Plus (1936-1947) - Disc 1 of 2\07 - Just Because.wav

Pre-gap length 0:00:02.64

Peak level 98.5 %
Track quality 100.0 %
Test CRC 522AB848
Copy CRC 522AB848
Accurately ripped (confidence 4) [A5CFDB88]
Copy OK

Track 8

Filename C:\EAC rips\Les Paul - - Complete Trios - Plus (1936-1947) - Disc 1 of 2\08 - Just Because Answer.wav

Pre-gap length 0:00:02.60

Peak level 84.3 %
Track quality 100.0 %
Test CRC 0430AF3C
Copy CRC 0430AF3C
Accurately ripped (confidence 4) [2D02D242]
Copy OK

Track 9

Filename C:\EAC rips\Les Paul - - Complete Trios - Plus (1936-1947) - Disc 1 of 2\09 - Deep Elem Blues #2.wav

Pre-gap length 0:00:02.60

Peak level 87.4 %
Track quality 99.9 %
Test CRC 20A6592B
Copy CRC 20A6592B
Accurately ripped (confidence 4) [C69708E7]
Copy OK

Track 10

Filename C:\EAC rips\Les Paul - - Complete Trios - Plus (1936-1947) - Disc 1 of 2\10 - Deep Elem Blues.wav

Pre-gap length 0:00:02.57

Peak level 88.3 %
Track quality 100.0 %
Test CRC B73BF759
Copy CRC B73BF759
Accurately ripped (confidence 4) [4DEC2403]
Copy OK

Track 11

Filename C:\EAC rips\Les Paul - - Complete Trios - Plus (1936-1947) - Disc 1 of 2\11 - Cindy.wav

Pre-gap length 0:00:02.60

Peak level 98.2 %
Track quality 100.0 %
Test CRC 2C549785
Copy CRC 2C549785
Accurately ripped (confidence 4) [F55A5CA9]
Copy OK

Track 12

Filename C:\EAC rips\Les Paul - - Complete Trios - Plus (1936-1947) - Disc 1 of 2\12 - Flipino Hombre.wav

Pre-gap length 0:00:02.56

Peak level 96.5 %
Track quality 100.0 %
Test CRC 5EF7EF7A
Copy CRC 5EF7EF7A
Accurately ripped (confidence 4) [F48504F5]
Copy OK

Track 13

Filename C:\EAC rips\Les Paul - - Complete Trios - Plus (1936-1947) - Disc 1 of 2\13 - Dream Dust.wav

Pre-gap length 0:00:02.57

Peak level 85.1 %
Track quality 100.0 %
Test CRC CE98AA36
Copy CRC CE98AA36
Accurately ripped (confidence 4) [1557ED4A]
Copy OK

Track 14

Filename C:\EAC rips\Les Paul - - Complete Trios - Plus (1936-1947) - Disc 1 of 2\14 - Begin The Beguine (1).wav

Pre-gap length 0:00:02.57

Peak level 85.6 %
Track quality 100.0 %
Test CRC B53E0954
Copy CRC B53E0954
Accurately ripped (confidence 4) [B2753C3C]
Copy OK

Track 15

Filename C:\EAC rips\Les Paul - - Complete Trios - Plus (1936-1947) - Disc 1 of 2\15 - Dark Eyes.wav

Pre-gap length 0:00:02.62

Peak level 87.5 %
Track quality 100.0 %
Test CRC 4F3C3C1A
Copy CRC 4F3C3C1A
Accurately ripped (confidence 4) [3589BAC5]
Copy OK

Track 16

Filename C:\EAC rips\Les Paul - - Complete Trios - Plus (1936-1947) - Disc 1 of 2\16 - Blues Skies (1).wav

Pre-gap length 0:00:02.70

Peak level 87.5 %
Track quality 100.0 %
Test CRC B5A6EAFD
Copy CRC B5A6EAFD
Accurately ripped (confidence 4) [918A8EB2]
Copy OK

Track 17

Filename C:\EAC rips\Les Paul - - Complete Trios - Plus (1936-1947) - Disc 1 of 2\17 - Blues Skies (2).wav

Pre-gap length 0:00:02.80

Peak level 100.0 %
Track quality 100.0 %
Test CRC CAE2DE84
Copy CRC CAE2DE84
Accurately ripped (confidence 4) [1C86DF63]
Copy OK

Track 18

Filename C:\EAC rips\Les Paul - - Complete Trios - Plus (1936-1947) - Disc 1 of 2\18 - Begin The Beguine (2).wav

Pre-gap length 0:00:02.26

Peak level 99.9 %
Track quality 100.0 %
Test CRC 43EE561F
Copy CRC 43EE561F
Accurately ripped (confidence 4) [5397407B]
Copy OK

Track 19

Filename C:\EAC rips\Les Paul - - Complete Trios - Plus (1936-1947) - Disc 1 of 2\19 - Dream Dust (2).wav

Pre-gap length 0:00:02.60

Peak level 94.9 %
Track quality 99.9 %
Test CRC 99FC975A
Copy CRC 99FC975A
Accurately ripped (confidence 4) [52ABC5F0]
Copy OK

Track 20

Filename C:\EAC rips\Les Paul - - Complete Trios - Plus (1936-1947) - Disc 1 of 2\20 - Dark Eyes (2).wav

Pre-gap length 0:00:02.56

Peak level 75.9 %
Track quality 99.9 %
Test CRC E5527B6C
Copy CRC E5527B6C
Accurately ripped (confidence 4) [6BBC354C]
Copy OK

Track 21

Filename C:\EAC rips\Les Paul - - Complete Trios - Plus (1936-1947) - Disc 1 of 2\21 - It's Been A Long, Long Time.wav

Pre-gap length 0:00:02.53

Peak level 82.6 %
Track quality 99.9 %
Test CRC C6ADD901
Copy CRC C6ADD901
Accurately ripped (confidence 4) [07C6B620]
Copy OK

Track 22

Filename C:\EAC rips\Les Paul - - Complete Trios - Plus (1936-1947) - Disc 1 of 2\22 - Whose Dream Are You .wav

Pre-gap length 0:00:02.60

Peak level 82.6 %
Track quality 100.0 %
Test CRC 313B9BD4
Copy CRC 313B9BD4
Accurately ripped (confidence 4) [354A65D5]
Copy OK

Track 23

Filename C:\EAC rips\Les Paul - - Complete Trios - Plus (1936-1947) - Disc 1 of 2\23 - Hawaiian Paradise.wav

Pre-gap length 0:00:02.50

Peak level 81.9 %
Track quality 100.0 %
Test CRC 83AB18C3
Copy CRC 83AB18C3
Accurately ripped (confidence 4) [49A68C98]
Copy OK

Track 24

Filename C:\EAC rips\Les Paul - - Complete Trios - Plus (1936-1947) - Disc 1 of 2\24 - My Isle Of Gloden Dreams.wav

Pre-gap length 0:00:02.60

Peak level 97.8 %
Track quality 100.0 %
Test CRC BDCDC104
Copy CRC BDCDC104
Accurately ripped (confidence 4) [9C1BD261]
Copy OK

Track 25

Filename C:\EAC rips\Les Paul - - Complete Trios - Plus (1936-1947) - Disc 1 of 2\25 - Spellbound.wav

Pre-gap length 0:00:02.53

Peak level 87.1 %
Track quality 100.0 %
Test CRC F42C610D
Copy CRC F42C610D
Accurately ripped (confidence 4) [8B5382FC]
Copy OK

Track 26

Filename C:\EAC rips\Les Paul - - Complete Trios - Plus (1936-1947) - Disc 1 of 2\26 - Everybody Knew But Me.wav

Pre-gap length 0:00:02.42

Peak level 93.9 %
Track quality 100.0 %
Test CRC F51D23CA
Copy CRC F51D23CA
Accurately ripped (confidence 4) [5CE8D4FF]
Copy OK


All tracks accurately ripped

No errors occurred

End of status report

Exact Audio Copy V0.99 prebeta 5 from 4. May 2009

EAC extraction logfile from 23. June 2010, 5:52

Les Paul / Complete Trios - Plus (1936-1947) - Disc 2 of 2

Used drive : HL-DT-STDVDRAM GSA-H42L Adapter: 4 ID: 0

Read mode : Secure
Utilize accurate stream : Yes
Defeat audio cache : Yes
Make use of C2 pointers : No

Read offset correction : 667
Overread into Lead-In and Lead-Out : No
Fill up missing offset samples with silence : Yes
Delete leading and trailing silent blocks : No
Null samples used in CRC calculations : Yes
Used interface : Native Win32 interface for Win NT & 2000
Gap handling : Appended to previous track

Used output format : User Defined Encoder
Selected bitrate : 320 kBit/s
Quality : High
Add ID3 tag : No
Command line compressor : C:\Program Files (x86)\Exact Audio Copy\Flac\flac.exe
Additional command line options : -V -8 -T "artist=%a" -T "title=%t" -T "album=%g" -T "date=%y" -T "tracknumber=%n" -T "genre=%m" %s


TOC of the extracted CD

Track | Start | Length | Start sector | End sector
––––––––––––––––––––––––––––-
1 | 0:00.00 | 2:29.12 | 0 | 11186
2 | 2:29.12 | 3:14.55 | 11187 | 25791
3 | 5:43.67 | 2:56.38 | 25792 | 39029
4 | 8:40.30 | 3:00.25 | 39030 | 52554
5 | 11:40.55 | 2:49.12 | 52555 | 65241
6 | 14:29.67 | 2:46.73 | 65242 | 77764
7 | 17:16.65 | 2:54.00 | 77765 | 90814
8 | 20:10.65 | 2:50.15 | 90815 | 103579
9 | 23:01.05 | 2:42.42 | 103580 | 115771
10 | 25:43.47 | 3:09.28 | 115772 | 129974
11 | 28:53.00 | 2:46.70 | 129975 | 142494
12 | 31:39.70 | 2:56.12 | 142495 | 155706
13 | 34:36.07 | 2:56.45 | 155707 | 168951
14 | 37:32.52 | 2:43.18 | 168952 | 181194
15 | 40:15.70 | 2:55.42 | 181195 | 194361
16 | 43:11.37 | 3:37.58 | 194362 | 210694
17 | 46:49.20 | 2:29.35 | 210695 | 221904
18 | 49:18.55 | 2:33.60 | 221905 | 233439
19 | 51:52.40 | 3:04.40 | 233440 | 247279
20 | 54:57.05 | 2:52.27 | 247280 | 260206
21 | 57:49.32 | 2:59.65 | 260207 | 273696
22 | 60:49.22 | 2:59.70 | 273697 | 287191
23 | 63:49.17 | 2:26.13 | 287192 | 298154
24 | 66:15.30 | 2:49.60 | 298155 | 310889


Track 1

Filename C:\EAC rips\Les Paul - - Complete Trios - Plus (1936-1947) - Disc 2 of 2\01 - Baby, What You Do For For Me.wav

Pre-gap length 0:00:02.00

Peak level 92.8 %
Track quality 100.0 %
Test CRC B3BC70A9
Copy CRC B3BC70A9
Accurately ripped (confidence 5) [80C2AC38]
Copy OK

Track 2

Filename C:\EAC rips\Les Paul - - Complete Trios - Plus (1936-1947) - Disc 2 of 2\02 - Everybody Knew But Me.wav

Pre-gap length 0:00:02.62

Peak level 98.2 %
Track quality 100.0 %
Test CRC 7A4A04F9
Copy CRC 7A4A04F9
Accurately ripped (confidence 4) [1541B453]
Copy OK

Track 3

Filename C:\EAC rips\Les Paul - - Complete Trios - Plus (1936-1947) - Disc 2 of 2\03 - Song Of The Islands.wav

Pre-gap length 0:00:02.69

Peak level 96.6 %
Track quality 100.0 %
Test CRC 52284D82
Copy CRC 52284D82
Accurately ripped (confidence 5) [FB021C9B]
Copy OK

Track 4

Filename C:\EAC rips\Les Paul - - Complete Trios - Plus (1936-1947) - Disc 2 of 2\04 - Sweet Leilani.wav

Pre-gap length 0:00:02.57

Peak level 86.9 %
Track quality 99.9 %
Test CRC 9562FA88
Copy CRC 9562FA88
Accurately ripped (confidence 5) [FA39D8FE]
Copy OK

Track 5

Filename C:\EAC rips\Les Paul - - Complete Trios - Plus (1936-1947) - Disc 2 of 2\05 - Kings Serenade.wav

Pre-gap length 0:00:02.57

Peak level 91.7 %
Track quality 100.0 %
Test CRC 03AF6354
Copy CRC 03AF6354
Accurately ripped (confidence 5) [40050A9A]
Copy OK

Track 6

Filename C:\EAC rips\Les Paul - - Complete Trios - Plus (1936-1947) - Disc 2 of 2\06 - To You, Sweetheart, Aloha.wav

Pre-gap length 0:00:02.56

Peak level 86.1 %
Track quality 100.0 %
Test CRC D6076B21
Copy CRC D6076B21
Accurately ripped (confidence 5) [5356FB51]
Copy OK

Track 7

Filename C:\EAC rips\Les Paul - - Complete Trios - Plus (1936-1947) - Disc 2 of 2\07 - Sweet Hawaiian Moonlight.wav

Pre-gap length 0:00:02.60

Peak level 99.9 %
Track quality 99.9 %
Test CRC 3C353BE6
Copy CRC 3C353BE6
Accurately ripped (confidence 5) [2C09A4B2]
Copy OK

Track 8

Filename C:\EAC rips\Les Paul - - Complete Trios - Plus (1936-1947) - Disc 2 of 2\08 - Aloha Oe.wav

Pre-gap length 0:00:02.60

Peak level 91.8 %
Track quality 100.0 %
Test CRC 4240A998
Copy CRC 4240A998
Accurately ripped (confidence 5) [51F29996]
Copy OK

Track 9

Filename C:\EAC rips\Les Paul - - Complete Trios - Plus (1936-1947) - Disc 2 of 2\09 - Pretending.wav

Pre-gap length 0:00:02.50

Peak level 99.9 %
Track quality 100.0 %
Test CRC EAC2BDB8
Copy CRC EAC2BDB8
Accurately ripped (confidence 5) [93C0E2F4]
Copy OK

Track 10

Filename C:\EAC rips\Les Paul - - Complete Trios - Plus (1936-1947) - Disc 2 of 2\10 - Gotta Get Me Somebody To Love.wav

Pre-gap length 0:00:02.53

Peak level 100.0 %
Track quality 100.0 %
Test CRC 148FCF3A
Copy CRC 148FCF3A
Accurately ripped (confidence 5) [5342F6C7]
Copy OK

Track 11

Filename C:\EAC rips\Les Paul - - Complete Trios - Plus (1936-1947) - Disc 2 of 2\11 - One-Sided Affair.wav

Pre-gap length 0:00:04.93

Peak level 92.5 %
Track quality 100.0 %
Test CRC 7DF92700
Copy CRC 7DF92700
Accurately ripped (confidence 5) [08878D58]
Copy OK

Track 12

Filename C:\EAC rips\Les Paul - - Complete Trios - Plus (1936-1947) - Disc 2 of 2\12 - What Would It Take .wav

Pre-gap length 0:00:02.64

Peak level 96.2 %
Track quality 100.0 %
Test CRC CC1A134C
Copy CRC CC1A134C
Accurately ripped (confidence 5) [A1F39713]
Copy OK

Track 13

Filename C:\EAC rips\Les Paul - - Complete Trios - Plus (1936-1947) - Disc 2 of 2\13 - Rumors Are Flying.wav

Pre-gap length 0:00:02.66

Peak level 89.9 %
Track quality 100.0 %
Test CRC 930B247C
Copy CRC 930B247C
Accurately ripped (confidence 5) [82AC0ED2]
Copy OK

Track 14

Filename C:\EAC rips\Les Paul - - Complete Trios - Plus (1936-1947) - Disc 2 of 2\14 - It's A Pity To Say Goodnight.wav

Pre-gap length 0:00:02.60

Peak level 91.0 %
Track quality 100.0 %
Test CRC F1AD0517
Copy CRC F1AD0517
Accurately ripped (confidence 5) [EAA61AA3]
Copy OK

Track 15

Filename C:\EAC rips\Les Paul - - Complete Trios - Plus (1936-1947) - Disc 2 of 2\15 - Steel Guitar Rag.wav

Pre-gap length 0:00:02.80

Peak level 90.9 %
Track quality 100.0 %
Test CRC 4D212875
Copy CRC 4D212875
Accurately ripped (confidence 5) [D8A57806]
Copy OK

Track 16

Filename C:\EAC rips\Les Paul - - Complete Trios - Plus (1936-1947) - Disc 2 of 2\16 - Guitar Boogie (1).wav

Pre-gap length 0:00:02.60

Peak level 93.2 %
Track quality 100.0 %
Test CRC 92DA8B7F
Copy CRC 92DA8B7F
Accurately ripped (confidence 5) [A60A60D0]
Copy OK

Track 17

Filename C:\EAC rips\Les Paul - - Complete Trios - Plus (1936-1947) - Disc 2 of 2\17 - Guitar Boogie (2).wav

Pre-gap length 0:00:02.50

Peak level 87.5 %
Track quality 100.0 %
Test CRC F9E90A5A
Copy CRC F9E90A5A
Accurately ripped (confidence 5) [962C7D95]
Copy OK

Track 18

Filename C:\EAC rips\Les Paul - - Complete Trios - Plus (1936-1947) - Disc 2 of 2\18 - Caravan.wav

Pre-gap length 0:00:02.60

Peak level 87.5 %
Track quality 100.0 %
Test CRC 0BF8B360
Copy CRC 0BF8B360
Accurately ripped (confidence 5) [53EE4A09]
Copy OK

Track 19

Filename C:\EAC rips\Les Paul - - Complete Trios - Plus (1936-1947) - Disc 2 of 2\19 - Somebody Loves Me.wav

Pre-gap length 0:00:02.57

Peak level 92.7 %
Track quality 100.0 %
Test CRC 537568E6
Copy CRC 537568E6
Accurately ripped (confidence 5) [94735A89]
Copy OK

Track 20

Filename C:\EAC rips\Les Paul - - Complete Trios - Plus (1936-1947) - Disc 2 of 2\20 - Gotta Get Me Somebody To Love.wav

Pre-gap length 0:00:02.57

Peak level 93.5 %
Track quality 99.8 %
Test CRC 423BA123
Copy CRC 423BA123
Accurately ripped (confidence 5) [5FE981C5]
Copy OK

Track 21

Filename C:\EAC rips\Les Paul - - Complete Trios - Plus (1936-1947) - Disc 2 of 2\21 - What Am I Gonna Do About You .wav

Pre-gap length 0:00:02.60

Peak level 94.5 %
Track quality 100.0 %
Test CRC 0D32270D
Copy CRC 0D32270D
Accurately ripped (confidence 4) [BA8C1601]
Copy OK

Track 22

Filename C:\EAC rips\Les Paul - - Complete Trios - Plus (1936-1947) - Disc 2 of 2\22 - Drifting And Dreaming (Sweet Paradise).wav

Pre-gap length 0:00:02.60

Peak level 91.1 %
Track quality 100.0 %
Test CRC 86F93C4A
Copy CRC 86F93C4A
Accurately ripped (confidence 4) [02DB857C]
Copy OK

Track 23

Filename C:\EAC rips\Les Paul - - Complete Trios - Plus (1936-1947) - Disc 2 of 2\23 - What Are You Doing For New Years Eve .wav

Pre-gap length 0:00:02.49

Peak level 68.7 %
Track quality 100.0 %
Test CRC 3916D7D6
Copy CRC 3916D7D6
Accurately ripped (confidence 5) [A6FE2EFE]
Copy OK

Track 24

Filename C:\EAC rips\Les Paul - - Complete Trios - Plus (1936-1947) - Disc 2 of 2\24 - My Future Just Passed.wav

Pre-gap length 0:00:02.57

Peak level 78.0 %
Track quality 99.9 %
Test CRC B905A6D7
Copy CRC B905A6D7
Accurately ripped (confidence 5) [9BB6051C]
Copy OK


All tracks accurately ripped

No errors occurred

End of status report


Les Paul - The Complete Decca Trios - Plus, 1936-1947 (1997) {2CD Set Decca--MCA Records MCAD2-11708}

Les Paul - The Complete Decca Trios - Plus, 1936-1947 (1997) {2CD Set Decca--MCA Records MCAD2-11708}



===