Subcategories

Lim - Superlim (2006) {Kopasetic KOPACD010 rec 2004}

Posted By: ruskaval
Lim - Superlim (2006) {Kopasetic KOPACD010 rec 2004}

Lim - Superlim (2006) {Kopasetic KOPACD010 rec 2004}
EAC rip (secure mode) | FLAC (tracks)+CUE+LOG -> 217 Mb | MP3 @320 -> 108 Mb
Full Artwork @ 300 dpi (jpg) -> 17 Mb | 5% repair rar
© 2006 Kopasetic Productions | KOPACD01
Jazz / Minimal / Avant-Garde Jazz / Sweden / Ambient Jazz

Superlim is lim´s second album (their first one was released on db-productions in 2002). This album was recorded in December 2004 and mixed, edited and produced by David Carlsson and lim in 2006. lim´s music is (still) based on rhytmic ideas, but the sound of the group has evolved into a more acoustic and suggestive one.
The jazz trio Lim, from Malmo, Sweden, display a proclivity for impromptu musical wanderings born from the imagination and bred through avant-garde techniques and Modern-free outgrowths. Their songs are mainly Blues-free tints moored by sparse rhythms and conditioned with bluesy wavelengths emitted from Henrik Frisk’s saxophone, David Carlsson’s bass, and Peter Nilsson’s drum strides. Their freelance quills and coiling textures have a common factor with avant-garde performances by Grachan Moncur III, Albert Ayler, and Pharoah Sanders. The absence of defining melodies gives the songs a free-for-all form with installations of dawdling notes, sauntering rhythms, and improvised musical ideas. The mobility and shapes of the sonic craters and composites are personally determined by their creator, crafting a plethora of disoriented and contorted sound constellations.

Lim’s current album, their sophomore release Superlim, is Sound Art at its highest level of freedom. The music has reflections of the experimental jazz phrases presented in the ‘60s avant-garde films made famous by director Federico Fellini and still practiced in many Parisian jazz parlors. From the start, the listener feels like an observer with tracks like "Shulaffel" and "Vito" spritzing drum strokes and pacifying bass tugs as sprinting saxophone notes poke through the rhythm links, sprouting tingling outgrowths along the chord progressions. There is a sense of uncertainty in the sax notes about what to play and where to go as the instrument pulses interact and act as a catalyst for each others frequencies and nebulas. The direction and progression of the instrument lines are unpredictable, testing the waters and taking risks, curiously venturing outside of the Blues-jazz discipline.

The drifts in the series of notes are extemporized and inventively orchestrated, making the listener a mere watcher of this expedition. At times, the music has an opiate feel like "Nephilim" and "Getting’ Tage," possessing a Stoner-jazz inflection, and at other times, the music is like Math-jazz manipulating the notes configurations and brightness like on the tracks "Captain Anna (And His Crew)" and "TraneBird." Sax notes are inverted, exaggerated, elongated, and shortened at whim, fluxing between languid and dizzying motions. The final track "Re: Happy" tests different sonic combinations, varying the tempo and stanza ranges and thickening up the textures. Notes are more stressed and hurried creating a formation of bristling dynamics.

Lim’s tooling with rhythms and notes resonance explores organic movements and shapes of sounds. The band which formed 10 years ago, builds a forum for rhythmical freedom and contorted structures that bend and twist in ways that are completely unique and avant-garde. Ancient folk tales insist that the power of three is extremely potent and lim shows that to be certifiably true.
Lim - Superlim (2006) {Kopasetic KOPACD010 rec 2004}


Lim is:
Henrik Frisk - Saxophones, bass clarinet, synthesizers & programming
David Carlsson - Bass
Peter Nilsson - Drums & percussion

tracklist:
01 Shulaffel 06:03
02 Nephilim 07:41
03 Vito 09:37
04 Gettin' Tage 05:22
05 Captain Anna (And His Crew) 06:25
06 TraneBird 07:30
07 Re: Happy 03:15

Exact Audio Copy V1.1 from 23. June 2015

EAC extraction logfile from 27. December 2016, 19:07

Lim / Superlim

Used drive : MATSHITADVD+-RW SW830 Adapter: 1 ID: 0

Read mode : Secure
Utilize accurate stream : Yes
Defeat audio cache : Yes
Make use of C2 pointers : No

Read offset correction : 6
Overread into Lead-In and Lead-Out : No
Fill up missing offset samples with silence : Yes
Delete leading and trailing silent blocks : No
Null samples used in CRC calculations : Yes
Used interface : Native Win32 interface for Win NT & 2000
Gap handling : Appended to previous track

Used output format : User Defined Encoder
Selected bitrate : 896 kBit/s
Quality : High
Add ID3 tag : No
Command line compressor : C:\Program Files (x86)\Exact Audio Copy\Flac\flac.exe
Additional command line options : -8 -V -T "ARTIST=%artist%" -T "TITLE=%title%" -T "ALBUM=%albumtitle%" -T "DATE=%year%" -T "TRACKNUMBER=%tracknr%" -T "TOTALTRACKS=%numtracks%" -T "GENRE=%genre%" -T "ALBUMARTIST=%albumartist%" -T "ALBUM ARTIST=%albumartist%" -T "COMMENT=EAC Secure Mode, Test & Copy, AccurateRip, FLAC -8" %source%


TOC of the extracted CD

Track | Start | Length | Start sector | End sector
––––––––––––––––––––––––––––-
1 | 0:00.00 | 6:03.10 | 0 | 27234
2 | 6:03.10 | 7:41.63 | 27235 | 61872
3 | 13:44.73 | 9:37.00 | 61873 | 105147
4 | 23:21.73 | 5:22.52 | 105148 | 129349
5 | 28:44.50 | 6:25.54 | 129350 | 158278
6 | 35:10.29 | 7:30.32 | 158279 | 192060
7 | 42:40.61 | 3:15.15 | 192061 | 206700


Track 1

Filename G:\New Rips\Lim - Superlim (2006) [FLAC]\01 - Shulaffel.wav

Pre-gap length 0:00:02.00

Peak level 98.8 %
Extraction speed 1.1 X
Track quality 100.0 %
Test CRC 61056053
Copy CRC 61056053
Track not present in AccurateRip database
Copy OK

Track 2

Filename G:\New Rips\Lim - Superlim (2006) [FLAC]\02 - Nephilim.wav

Peak level 97.6 %
Extraction speed 1.4 X
Track quality 100.0 %
Test CRC 39A56186
Copy CRC 39A56186
Track not present in AccurateRip database
Copy OK

Track 3

Filename G:\New Rips\Lim - Superlim (2006) [FLAC]\03 - Vito.wav

Peak level 98.8 %
Extraction speed 1.6 X
Track quality 99.9 %
Test CRC C01D82E6
Copy CRC C01D82E6
Track not present in AccurateRip database
Copy OK

Track 4

Filename G:\New Rips\Lim - Superlim (2006) [FLAC]\04 - Gettin Tage.wav

Peak level 98.8 %
Extraction speed 1.6 X
Track quality 99.9 %
Test CRC 79C1612B
Copy CRC 79C1612B
Track not present in AccurateRip database
Copy OK

Track 5

Filename G:\New Rips\Lim - Superlim (2006) [FLAC]\05 - Captain Anna.wav

Peak level 96.3 %
Extraction speed 1.9 X
Track quality 100.0 %
Test CRC D2AF808A
Copy CRC D2AF808A
Track not present in AccurateRip database
Copy OK

Track 6

Filename G:\New Rips\Lim - Superlim (2006) [FLAC]\06 - TraneBird.wav

Peak level 98.4 %
Extraction speed 2.1 X
Track quality 100.0 %
Test CRC FF943AED
Copy CRC FF943AED
Track not present in AccurateRip database
Copy OK

Track 7

Filename G:\New Rips\Lim - Superlim (2006) [FLAC]\07 - Re Happy.wav

Peak level 98.8 %
Extraction speed 1.7 X
Track quality 99.9 %
Test CRC 43750FA1
Copy CRC 43750FA1
Track not present in AccurateRip database
Copy OK


None of the tracks are present in the AccurateRip database

No errors occurred

End of status report

–– CUETools DB Plugin V2.1.6

[CTDB TOCID: t98Fh34WD.LHn.PM04RksUF4Ltw-] disk not present in database
Submit result: t98Fh34WD.LHn.PM04RksUF4Ltw- has been uploaded


==== Log checksum C6B9B14BC4C15352C17AF0BFB880484DB371F74D5D4518F49D286E5D83EFADBC ====


Lim - Superlim (2006) {Kopasetic KOPACD010 rec 2004}

Lim - Superlim (2006) {Kopasetic KOPACD010 rec 2004}



===