Subcategories

Linda Eder - Soundtrack (2009)

Posted By: Domestos
Linda Eder - Soundtrack (2009)

Linda Eder - Soundtrack (2009)
EAC Rip | FLAC (tracks+.cue, log) ~ 216.09 Mb | 39:35 | Covers
Vocal Jazz, Pop | Country: USA | Label: Verve - B0013224-02

On The Other Side of Me, her first album for Verve, Linda Eder branched out from her show music environment to dabble in country. Soundtrack, her second Verve release, consists of movie songs, which might suggest she is returning to her familiar style. But the collection of 11 tracks is sufficiently unusual in terms of selection and musical arrangements to mark another step into unknown territory for the singer.

She and producer Peter Collins appear to have decided to limit their choices to movies released during Eder's lifetime, which means that the 48-year-old looks back as far as the Elvis Presley standard "Can't Help Falling in Love" from 1961's Blue Hawaii and as near as the Oscar-winning "Falling Slowly" from 2007's Once. And Eder has not returned to string-filled traditional pop arrangements, preferring small band jazz and folk-pop treatments. So, for example, the lead-off song, "I Will Wait for You," is given a low-key, jazzy accompaniment, and "Charade" is treated as if it were being played by Django Reinhardt & the Hot Club of France, while "Everybody's Talking" is rendered as a samba. Many of the performances have a downcast or even mournful tone, as Eder sings plaintively, often either with her own overdubbed harmony voice or a background singer joining her on individual lines. When love is the subject, it is a little desperate ("Against All Odds," "If I Can't Have You"), and sometimes the subject is the singer's own psychological distress ("Help," "Valley of the Dolls"). Maybe that's reflective of where the movies have been at during her life, or maybe she's drawing a pessimistic tone out of her choices. Either way, Soundtrack is an album of moody music from the movies. ~ AllMusic Review by William Ruhlmann



Track List:
01. I Will Wait for You (3:34)
02. Accidentally in Love (2:58)
03. Falling Slowly (3:53)
04. Against All Odds (3:13)
05. Charade (2:20)
06. If I Can't Have You (3:51)
07. Help (3:25)
08. Can't Help Falling in Love (3:48)
09. Everybody's Talking (3:13)
10. Valley of the Dolls (5:02)
11. Everything I Do (I Do It for You) (4:18)

Linda Eder - Soundtrack (2009)

Exact Audio Copy V1.3 from 2. September 2016

EAC extraction logfile from 30. July 2017, 13:40

Linda Eder / Soundtrack

Used drive : ASUS SDRW-08D2S-U Adapter: 1 ID: 0

Read mode : Secure
Utilize accurate stream : Yes
Defeat audio cache : Yes
Make use of C2 pointers : No

Read offset correction : 6
Overread into Lead-In and Lead-Out : No
Fill up missing offset samples with silence : Yes
Delete leading and trailing silent blocks : No
Null samples used in CRC calculations : Yes
Used interface : Native Win32 interface for Win NT & 2000
Gap handling : Appended to previous track

Used output format : User Defined Encoder
Selected bitrate : 1024 kBit/s
Quality : High
Add ID3 tag : No
Command line compressor : C:\Program Files (x86)\Exact Audio Copy\Flac\flac.exe
Additional command line options : -8 -e -p -V -T "ARTIST=%artist%" -T "TITLE=%title%" -T "ALBUM=%albumtitle%" -T "DATE=%year%" -T "TRACKNUMBER=%tracknr%" -T "GENRE=%genre%" -T "PERFORMER=%albuminterpret%" -T "COMPOSER=%composer%" %haslyrics%–tag-from-file=LYRICS="%lyricsfile%"%haslyrics% -T "ALBUMARTIST=%albumartist%" -T "DISCNUMBER=%cdnumber%" -T "TOTALDISCS=%totalcds%" -T "TOTALTRACKS=%numtracks%" -T "COMMENT=%comment%" %source% -o %dest%


TOC of the extracted CD

Track | Start | Length | Start sector | End sector
––––––––––––––––––––––––––––-
1 | 0:00.00 | 3:34.32 | 0 | 16081
2 | 3:34.32 | 2:58.13 | 16082 | 29444
3 | 6:32.45 | 3:53.20 | 29445 | 46939
4 | 10:25.65 | 3:13.30 | 46940 | 61444
5 | 13:39.20 | 2:19.72 | 61445 | 71941
6 | 15:59.17 | 3:50.60 | 71942 | 89251
7 | 19:50.02 | 3:24.60 | 89252 | 104611
8 | 23:14.62 | 3:48.35 | 104612 | 121746
9 | 27:03.22 | 3:12.60 | 121747 | 136206
10 | 30:16.07 | 5:01.50 | 136207 | 158831
11 | 35:17.57 | 4:18.33 | 158832 | 178214


Track 1

Filename W:\EAC Rips\Linda Eder - 2009 - Soundtrack [FLAC]\01 - I Will Wait for You.wav

Pre-gap length 0:00:02.00

Peak level 100.0 %
Extraction speed 1.1 X
Track quality 99.9 %
Test CRC 830AEAB7
Copy CRC 830AEAB7
Accurately ripped (confidence 7) [1815E3E3] (AR v2)
Copy OK

Track 2

Filename W:\EAC Rips\Linda Eder - 2009 - Soundtrack [FLAC]\02 - Accidentally In Love.wav

Peak level 100.0 %
Extraction speed 1.3 X
Track quality 100.0 %
Test CRC E4BF1FBC
Copy CRC E4BF1FBC
Accurately ripped (confidence 7) [A0AE5F06] (AR v2)
Copy OK

Track 3

Filename W:\EAC Rips\Linda Eder - 2009 - Soundtrack [FLAC]\03 - Falling Slowly.wav

Pre-gap length 0:00:00.37

Peak level 98.8 %
Extraction speed 1.4 X
Track quality 100.0 %
Test CRC A49318F5
Copy CRC A49318F5
Accurately ripped (confidence 7) [E9987330] (AR v2)
Copy OK

Track 4

Filename W:\EAC Rips\Linda Eder - 2009 - Soundtrack [FLAC]\04 - Against All Odds.wav

Pre-gap length 0:00:01.24

Peak level 98.8 %
Extraction speed 1.5 X
Track quality 100.0 %
Test CRC 380B17A6
Copy CRC 380B17A6
Accurately ripped (confidence 7) [E7E82D19] (AR v2)
Copy OK

Track 5

Filename W:\EAC Rips\Linda Eder - 2009 - Soundtrack [FLAC]\05 - Charade.wav

Pre-gap length 0:00:01.17

Peak level 97.1 %
Extraction speed 1.4 X
Track quality 100.0 %
Test CRC 91902E85
Copy CRC 91902E85
Accurately ripped (confidence 7) [2D8FBC20] (AR v2)
Copy OK

Track 6

Filename W:\EAC Rips\Linda Eder - 2009 - Soundtrack [FLAC]\06 - If I Can't Have You.wav

Pre-gap length 0:00:01.93

Peak level 98.8 %
Extraction speed 1.7 X
Track quality 100.0 %
Test CRC 6825666F
Copy CRC 6825666F
Accurately ripped (confidence 7) [28AE1224] (AR v2)
Copy OK

Track 7

Filename W:\EAC Rips\Linda Eder - 2009 - Soundtrack [FLAC]\07 - Help.wav

Pre-gap length 0:00:01.36

Peak level 100.0 %
Extraction speed 1.7 X
Track quality 100.0 %
Test CRC 8160758B
Copy CRC 8160758B
Accurately ripped (confidence 7) [94208670] (AR v2)
Copy OK

Track 8

Filename W:\EAC Rips\Linda Eder - 2009 - Soundtrack [FLAC]\08 - Can't Help Falling In Love.wav

Pre-gap length 0:00:01.06

Peak level 100.0 %
Extraction speed 1.8 X
Track quality 100.0 %
Test CRC F9DF5A1C
Copy CRC F9DF5A1C
Accurately ripped (confidence 7) [A97EC2E8] (AR v2)
Copy OK

Track 9

Filename W:\EAC Rips\Linda Eder - 2009 - Soundtrack [FLAC]\09 - Everybody's Talking.wav

Pre-gap length 0:00:01.02

Peak level 100.0 %
Extraction speed 1.8 X
Track quality 100.0 %
Test CRC 69B4FA50
Copy CRC 69B4FA50
Accurately ripped (confidence 7) [01E470A0] (AR v2)
Copy OK

Track 10

Filename W:\EAC Rips\Linda Eder - 2009 - Soundtrack [FLAC]\10 - Valley of the Dolls.wav

Pre-gap length 0:00:00.69

Peak level 87.5 %
Extraction speed 2.0 X
Track quality 100.0 %
Test CRC 259EB75A
Copy CRC 259EB75A
Accurately ripped (confidence 7) [7924B609] (AR v2)
Copy OK

Track 11

Filename W:\EAC Rips\Linda Eder - 2009 - Soundtrack [FLAC]\11 - Everything I Do (I Do It for You).wav

Pre-gap length 0:00:00.80

Peak level 100.0 %
Extraction speed 2.1 X
Track quality 100.0 %
Test CRC 182A6A1D
Copy CRC 182A6A1D
Accurately ripped (confidence 7) [DAFC5B61] (AR v2)
Copy OK


All tracks accurately ripped

No errors occurred

End of status report

–– CUETools DB Plugin V2.1.6

[CTDB TOCID: FMIv2E3DxHEuwq3M6rR5vMqgdvo-] found
Submit result: FMIv2E3DxHEuwq3M6rR5vMqgdvo- has been confirmed
Track | CTDB Status
1 | (14/14) Accurately ripped
2 | (14/14) Accurately ripped
3 | (14/14) Accurately ripped
4 | (14/14) Accurately ripped
5 | (14/14) Accurately ripped
6 | (14/14) Accurately ripped
7 | (14/14) Accurately ripped
8 | (14/14) Accurately ripped
9 | (14/14) Accurately ripped
10 | (14/14) Accurately ripped
11 | (14/14) Accurately ripped


==== Log checksum D56F06A15F3E5ED5F54DB9678829479290693713B49E7972C829F2FD3912A385 ====

All thanks go to the eisenherrz

More Music in My Blog
Follow My RSS Channel