Lisa Ekdahl - När alla vägar leder hem (2017)

Posted By: delpotro
Lisa Ekdahl - När alla vägar leder hem (2017)

Lisa Ekdahl - När alla vägar leder hem (2017)
XLD Rip | FLAC (tracks+log+.cue) | 00:51:56 | 318 Mb
Pop, Folk, Singer-Songwriter, Jazz, Female Vocal | Label: Sony Music

Best known in Scandinavia for her 1994 hit "Vem Vet, " Lisa Ekdahl became one of the top Swedish pop singers of the 1990s but also records and performs straightahead jazz. Ekdahl's pop albums have been in Swedish, while her acoustic jazz albums have favored English-language standards.
Tracklist:
1. När Alla Vägar Leder Hem (03:23)
2. Din Slöserska (03:13)
3. Ryggradslös Värld (03:36)
4. Famna Jorden (02:43)
5. Återvänd Till Mig (02:44)
6. Välkommen Morgon (03:15)
7. Jorden Runt Solen (02:53)
8. Sun Ra (03:58)
9. Lite Svikt I Steget (02:43)
10. Amelia (03:26)
11. Det Värsta Av Allt (03:02)
12. Om Bara Du (03:16)
13. Det Är Inte Nog (03:40)
14. Vita Bergens Klockor (03:27)
15. Sol Vind & Vatten (02:45)
16. Crazy In Love (03:52)

X Lossless Decoder version 20161007 (149.3)

XLD extraction logfile from 2017-04-25 23:38:16 +0300

Lisa Ekdahl / När Alla Vägar Leder Hem

Used drive : HL-DT-ST DVDRW GS23N (revision SB07)
Media type : Pressed CD

Ripper mode : XLD Secure Ripper
Disable audio cache : OK for the drive with a cache less than 1375KiB
Make use of C2 pointers : NO
Read offset correction : 667
Max retry count : 20
Gap status : Analyzed, Appended (except HTOA)

TOC of the extracted CD
Track | Start | Length | Start sector | End sector
––––––––––––––––––––––––––––-
1 | 00:00:00 | 03:22:62 | 0 | 15211
2 | 03:22:62 | 03:12:65 | 15212 | 29676
3 | 06:35:52 | 03:35:45 | 29677 | 45846
4 | 10:11:22 | 02:43:30 | 45847 | 58101
5 | 12:54:52 | 02:44:17 | 58102 | 70418
6 | 15:38:69 | 03:14:68 | 70419 | 85036
7 | 18:53:62 | 02:53:24 | 85037 | 98035
8 | 21:47:11 | 03:57:63 | 98036 | 115873
9 | 25:44:74 | 02:43:30 | 115874 | 128128
10 | 28:28:29 | 03:25:37 | 128129 | 143540
11 | 31:53:66 | 03:02:25 | 143541 | 157215
12 | 34:56:16 | 03:15:44 | 157216 | 171884
13 | 38:11:60 | 03:40:24 | 171885 | 188408
14 | 41:52:09 | 03:27:11 | 188409 | 203944
15 | 45:19:20 | 02:45:31 | 203945 | 216350
16 | 48:04:51 | 03:51:27 | 216351 | 233702

AccurateRip Summary (DiscID: 001deda7-01675c6f-d90c2c10)
Track 01 : OK (v2, confidence 1/1)
Track 02 : OK (v2, confidence 1/1)
Track 03 : OK (v2, confidence 1/1)
Track 04 : OK (v2, confidence 1/1)
Track 05 : OK (v2, confidence 1/1)
Track 06 : OK (v2, confidence 1/1)
Track 07 : OK (v2, confidence 1/1)
Track 08 : OK (v2, confidence 1/1)
Track 09 : OK (v2, confidence 1/1)
Track 10 : OK (v2, confidence 1/1)
Track 11 : OK (v2, confidence 1/1)
Track 12 : OK (v2, confidence 1/1)
Track 13 : OK (v2, confidence 1/1)
Track 14 : OK (v2, confidence 1/1)
Track 15 : OK (v2, confidence 1/1)
Track 16 : OK (v2, confidence 1/1)
->All tracks accurately ripped.

All Tracks
Album gain : -8.21 dB
Peak : 0.989075
Statistics
Read error : 0
Jitter error (maybe fixed) : 0
Retry sector count : 0
Damaged sector count : 0

Track 01
Filename : /Users/antris/Desktop/Rips/Lisa Ekdahl - När Alla Vägar Leder Hem (2017) [CD FLAC]/01 När alla vägar leder hem.flac
Pre-gap length : 00:02:00

Track gain : -7.78 dB
Peak : 0.988922
CRC32 hash (test run) : 979B5ED5
CRC32 hash : 979B5ED5
CRC32 hash (skip zero) : B0D66C41
AccurateRip v1 signature : 6F20E60C
AccurateRip v2 signature : FABFF315
->Accurately ripped (v2, confidence 1/1)
Statistics
Read error : 0
Jitter error (maybe fixed) : 0
Retry sector count : 0
Damaged sector count : 0

Track 02
Filename : /Users/antris/Desktop/Rips/Lisa Ekdahl - När Alla Vägar Leder Hem (2017) [CD FLAC]/02 Din slöserska.flac

Track gain : -8.13 dB
Peak : 0.988800
CRC32 hash (test run) : 7C3523B0
CRC32 hash : 7C3523B0
CRC32 hash (skip zero) : 5CB2E500
AccurateRip v1 signature : 77C260CE
AccurateRip v2 signature : E7492629
->Accurately ripped (v2, confidence 1/1)
Statistics
Read error : 0
Jitter error (maybe fixed) : 0
Retry sector count : 0
Damaged sector count : 0

Track 03
Filename : /Users/antris/Desktop/Rips/Lisa Ekdahl - När Alla Vägar Leder Hem (2017) [CD FLAC]/03 Ryggradslös värld.flac

Track gain : -7.13 dB
Peak : 0.988800
CRC32 hash (test run) : F35BED9D
CRC32 hash : F35BED9D
CRC32 hash (skip zero) : 4DE9E80A
AccurateRip v1 signature : 3C076C67
AccurateRip v2 signature : 2D5B1AD0
->Accurately ripped (v2, confidence 1/1)
Statistics
Read error : 0
Jitter error (maybe fixed) : 0
Retry sector count : 0
Damaged sector count : 0

Track 04
Filename : /Users/antris/Desktop/Rips/Lisa Ekdahl - När Alla Vägar Leder Hem (2017) [CD FLAC]/04 Famna jorden.flac

Track gain : -8.10 dB
Peak : 0.989075
CRC32 hash (test run) : DA766DEE
CRC32 hash : DA766DEE
CRC32 hash (skip zero) : 45075B45
AccurateRip v1 signature : C2A1392E
AccurateRip v2 signature : D301D645
->Accurately ripped (v2, confidence 1/1)
Statistics
Read error : 0
Jitter error (maybe fixed) : 0
Retry sector count : 0
Damaged sector count : 0

Track 05
Filename : /Users/antris/Desktop/Rips/Lisa Ekdahl - När Alla Vägar Leder Hem (2017) [CD FLAC]/05 Återvänd till mig.flac

Track gain : -8.38 dB
Peak : 0.988953
CRC32 hash (test run) : BC19A534
CRC32 hash : BC19A534
CRC32 hash (skip zero) : DCFB6152
AccurateRip v1 signature : 348DE795
AccurateRip v2 signature : 7C80DB63
->Accurately ripped (v2, confidence 1/1)
Statistics
Read error : 0
Jitter error (maybe fixed) : 0
Retry sector count : 0
Damaged sector count : 0

Track 06
Filename : /Users/antris/Desktop/Rips/Lisa Ekdahl - När Alla Vägar Leder Hem (2017) [CD FLAC]/06 Välkommen morgon.flac

Track gain : -9.05 dB
Peak : 0.989014
CRC32 hash (test run) : 726EA87D
CRC32 hash : 726EA87D
CRC32 hash (skip zero) : 0A3BF003
AccurateRip v1 signature : 4262ACB0
AccurateRip v2 signature : 597C7843
->Accurately ripped (v2, confidence 1/1)
Statistics
Read error : 0
Jitter error (maybe fixed) : 0
Retry sector count : 0
Damaged sector count : 0

Track 07
Filename : /Users/antris/Desktop/Rips/Lisa Ekdahl - När Alla Vägar Leder Hem (2017) [CD FLAC]/07 Jorden runt solen.flac

Track gain : -6.75 dB
Peak : 0.988953
CRC32 hash (test run) : C785C0C2
CRC32 hash : C785C0C2
CRC32 hash (skip zero) : 3BEDA4DC
AccurateRip v1 signature : 17D1DE02
AccurateRip v2 signature : 244640BF
->Accurately ripped (v2, confidence 1/1)
Statistics
Read error : 0
Jitter error (maybe fixed) : 0
Retry sector count : 0
Damaged sector count : 0

Track 08
Filename : /Users/antris/Desktop/Rips/Lisa Ekdahl - När Alla Vägar Leder Hem (2017) [CD FLAC]/08 Sun Ra.flac

Track gain : -8.48 dB
Peak : 0.988892
CRC32 hash (test run) : E2E13B7C
CRC32 hash : E2E13B7C
CRC32 hash (skip zero) : C3AF4EA0
AccurateRip v1 signature : 16C67532
AccurateRip v2 signature : 981554A3
->Accurately ripped (v2, confidence 1/1)
Statistics
Read error : 0
Jitter error (maybe fixed) : 0
Retry sector count : 0
Damaged sector count : 0

Track 09
Filename : /Users/antris/Desktop/Rips/Lisa Ekdahl - När Alla Vägar Leder Hem (2017) [CD FLAC]/09 Lite svikt i steget.flac

Track gain : -8.10 dB
Peak : 0.988800
CRC32 hash (test run) : ED7D32AF
CRC32 hash : ED7D32AF
CRC32 hash (skip zero) : 025AD3AA
AccurateRip v1 signature : BE117C05
AccurateRip v2 signature : B635B081
->Accurately ripped (v2, confidence 1/1)
Statistics
Read error : 0
Jitter error (maybe fixed) : 0
Retry sector count : 0
Damaged sector count : 0

Track 10
Filename : /Users/antris/Desktop/Rips/Lisa Ekdahl - När Alla Vägar Leder Hem (2017) [CD FLAC]/10 Amelia.flac

Track gain : -8.66 dB
Peak : 0.988892
CRC32 hash (test run) : E3DC2FE1
CRC32 hash : E3DC2FE1
CRC32 hash (skip zero) : 4A828846
AccurateRip v1 signature : 30676E3D
AccurateRip v2 signature : F228CCF3
->Accurately ripped (v2, confidence 1/1)
Statistics
Read error : 0
Jitter error (maybe fixed) : 0
Retry sector count : 0
Damaged sector count : 0

Track 11
Filename : /Users/antris/Desktop/Rips/Lisa Ekdahl - När Alla Vägar Leder Hem (2017) [CD FLAC]/11 Det värsta av allt.flac

Track gain : -8.27 dB
Peak : 0.988922
CRC32 hash (test run) : E0D6F36D
CRC32 hash : E0D6F36D
CRC32 hash (skip zero) : 4F1DC4B6
AccurateRip v1 signature : C5C68AD6
AccurateRip v2 signature : 157C1962
->Accurately ripped (v2, confidence 1/1)
Statistics
Read error : 0
Jitter error (maybe fixed) : 0
Retry sector count : 0
Damaged sector count : 0

Track 12
Filename : /Users/antris/Desktop/Rips/Lisa Ekdahl - När Alla Vägar Leder Hem (2017) [CD FLAC]/12 Om bare du.flac

Track gain : -8.11 dB
Peak : 0.988922
CRC32 hash (test run) : A8F0DC2F
CRC32 hash : A8F0DC2F
CRC32 hash (skip zero) : C0C229C9
AccurateRip v1 signature : 66E0915F
AccurateRip v2 signature : 9DDB2F77
->Accurately ripped (v2, confidence 1/1)
Statistics
Read error : 0
Jitter error (maybe fixed) : 0
Retry sector count : 0
Damaged sector count : 0

Track 13
Filename : /Users/antris/Desktop/Rips/Lisa Ekdahl - När Alla Vägar Leder Hem (2017) [CD FLAC]/13 Det är inte nog.flac

Track gain : -7.09 dB
Peak : 0.988770
CRC32 hash (test run) : 7E9E5FE9
CRC32 hash : 7E9E5FE9
CRC32 hash (skip zero) : A5CE0279
AccurateRip v1 signature : 40B045A3
AccurateRip v2 signature : 57C8DDB8
->Accurately ripped (v2, confidence 1/1)
Statistics
Read error : 0
Jitter error (maybe fixed) : 0
Retry sector count : 0
Damaged sector count : 0

Track 14
Filename : /Users/antris/Desktop/Rips/Lisa Ekdahl - När Alla Vägar Leder Hem (2017) [CD FLAC]/14 Vita bergens klockor.flac

Track gain : -7.92 dB
Peak : 0.988831
CRC32 hash (test run) : 37D0D716
CRC32 hash : 37D0D716
CRC32 hash (skip zero) : 3220C7BA
AccurateRip v1 signature : 4C911E0A
AccurateRip v2 signature : 8314213E
->Accurately ripped (v2, confidence 1/1)
Statistics
Read error : 0
Jitter error (maybe fixed) : 0
Retry sector count : 0
Damaged sector count : 0

Track 15
Filename : /Users/antris/Desktop/Rips/Lisa Ekdahl - När Alla Vägar Leder Hem (2017) [CD FLAC]/15 Sol vind & vatten.flac

Track gain : -9.01 dB
Peak : 0.988953
CRC32 hash (test run) : 292D61A3
CRC32 hash : 292D61A3
CRC32 hash (skip zero) : B0026BD3
AccurateRip v1 signature : 197CB9ED
AccurateRip v2 signature : 1583E398
->Accurately ripped (v2, confidence 1/1)
Statistics
Read error : 0
Jitter error (maybe fixed) : 0
Retry sector count : 0
Damaged sector count : 0

Track 16
Filename : /Users/antris/Desktop/Rips/Lisa Ekdahl - När Alla Vägar Leder Hem (2017) [CD FLAC]/16 Crazy In Love.flac

Track gain : -8.11 dB
Peak : 0.988892
CRC32 hash (test run) : DE021AF8
CRC32 hash : DE021AF8
CRC32 hash (skip zero) : 206C7599
AccurateRip v1 signature : 0D169E3E
AccurateRip v2 signature : B495F37E
->Accurately ripped (v2, confidence 1/1)
Statistics
Read error : 0
Jitter error (maybe fixed) : 0
Retry sector count : 0
Damaged sector count : 0

No errors occurred

End of status report

––-BEGIN XLD SIGNATURE––-
gyLOroPf.zzPzqLAuB_Ksjx3zKGFEF.TCL7l4Ql3WRVD6Cy7EZ2T66i9s3nctPYurbVbhLzDoSgv0rG1yl6NzdTRDJAfj.IfrlXud_S
––-END XLD SIGNATURE––-

Thanks to the Original ripper (Unknown)