Tags
Language
Tags
December 2022
Su Mo Tu We Th Fr Sa
27 28 29 30 1 2 3
4 5 6 7 8 9 10
11 12 13 14 15 16 17
18 19 20 21 22 23 24
25 26 27 28 29 30 31

Lonnie Liston Smith - Cosmic Funk (1974)

Posted By: intothe
Lonnie Liston Smith - Cosmic Funk (1974)

Lonnie Liston Smith - Cosmic Funk (1974)
Jazz | EAC rip (FLAC+CUE+LOG) | 236 MB | scans | Flying Dutchman | 36:09
RAR w. 5% recovery


Exact Audio Copy V0.99 prebeta 4 from 23. January 2008

EAC extraction logfile from 18. March 2009, 8:46

Lonnie Liston Smith & The Cosmic Echoes / Cosmic Funk

Used drive : _NEC DVD_RW ND-3500AG Adapter: 0 ID: 0

Read mode : Secure
Utilize accurate stream : Yes
Defeat audio cache : No
Make use of C2 pointers : Yes

Read offset correction : 48
Overread into Lead-In and Lead-Out : No
Fill up missing offset samples with silence : Yes
Delete leading and trailing silent blocks : No
Null samples used in CRC calculations : Yes
Used interface : Native Win32 interface for Win NT & 2000

Used output format : User Defined Encoder
Selected bitrate : 768 kBit/s
Quality : High
Add ID3 tag : No
Command line compressor : C:\Program Files\Exact Audio Copy\FLAC\FLAC.EXE
Additional command line options : -6 -V -T "ARTIST=%a" -T "TITLE=%t" -T "ALBUM=%g" -T "DATE=%y" -T "TRACKNUMBER=%n" -T "GENRE=%m" -T "COMMENT=%e" %s -o %d


TOC of the extracted CD

Track | Start | Length | Start sector | End sector
––––––––––––––––––––––––––––-
1 | 0:00.00 | 5:39.27 | 0 | 25451
2 | 5:39.27 | 6:11.08 | 25452 | 53284
3 | 11:50.35 | 6:58.12 | 53285 | 84646
4 | 18:48.47 | 8:16.10 | 84647 | 121856
5 | 27:04.57 | 5:03.53 | 121857 | 144634
6 | 32:08.35 | 4:01.17 | 144635 | 162726


Range status and errors

Selected range

Filename J:\eMusic\Rip\Lonnie Liston Smith & The Cosmic Echoes - Cosmic Funk.wav

Peak level 94.4 %
Range quality 100.0 %
Copy CRC 0E7F459D
Copy OK

No errors occurred

AccurateRip summary

Track 1 cannot be verified as accurate (confidence 3) [D16A22CE], AccurateRip returned [2B144B4E]
Track 2 cannot be verified as accurate (confidence 3) [96A34F0C], AccurateRip returned [66D93EA0]
Track 3 cannot be verified as accurate (confidence 3) [91C254EA], AccurateRip returned [D89393AF]
Track 4 cannot be verified as accurate (confidence 3) [566EB54D], AccurateRip returned [59A9E9D4]
Track 5 cannot be verified as accurate (confidence 3) [7AF2C8E3], AccurateRip returned [6E945D65]
Track 6 cannot be verified as accurate (confidence 3) [516681B1], AccurateRip returned [F6CDFE25]

No tracks could be verified as accurate
You may have a different pressing from the one(s) in the database

End of status report


This one is packed with classic tracks and is probably Smith's best record of them all. He wasn't quite discoed-out yet and he was fresh off of his traditional jazz runnings, so this record hits a very comfortable middle ground for fusion heads as well as those more tuned into smooth jazz. An incredible record that doesn't get anywhere near enough props as it should for helping define the fusion movement of the early 70s. - by Scott Woods, Amazon.com

Tracks:
1. Cosmic Funk (Lonnie Liston Smith) 5:39
2. Footprints (Wayne Shorter) 6:11
3. Beautiful Woman (Lonnie Liston Smith) 6:58
4. Sais (Egypt) (Mtume) 8:16
5. Peaceful Ones (Lonnie Liston Smith) 5:03
6. Naima (John Coltrane) 4:00

Personnel:
Lonnie Liston Smith (Acoustic and Elelctric Piano, Percussion)
Donald Smith (Vocals, Piano and Flute)
George Barron (Soprano Saxophone, Flute and Percussion)
Al Anderson (Electric Bass)
Lawrence Killian (Congas and Percussion)
Art Gore (Drums)
Doug Hammond (Percussion)
Andrew Cyrille (Percussion)
Ron Bridgewater (Percussion)

Dlink