Subcategories

Lonnie Smith - Turning Point (1969) {Blue Note Japan SHM-CD UCCQ-5127 rel 2014} (24-192 remaster)

Posted By: ruskaval
Lonnie Smith - Turning Point (1969) {Blue Note Japan SHM-CD UCCQ-5127 rel 2014} (24-192 remaster)

Lonnie Smith - Turning Point (1969) {Blue Note Japan SHM-CD UCCQ-5127 rel 2014} (24-192 remaster)
EAC rip (secure mode) | FLAC (tracks)+CUE+LOG -> 237 Mb | MP3 @320 -> 86 Mb
Full Artwork @ 600 dpi (png) -> 168 Mb | 5% repair rar | 24-bit 192 kHz remaster
© 1969, 2015 Universal Japan / Blue Note | BN 75th The Masterworks | UCCQ-5127
Jazz / Soul Jazz / Post Bop / Organ

Features the high-fidelity SHM-CD format (compatible with standard CD player) and the latest 24bit 192kHz remastering. A stone killer from organist Lonnie Smith – one of his completely cooking early albums for Blue Note, and a hard-burner all the way through! Smith's working here with a really great group that includes Idris Muhammad on drums and Melvin Sparks on guitar – both of whom give the album a really heavy bottom, and almost make the set feel like one of those classic Prestige jammers from the same time.

But added to them is a great horn section of Lee Morgan on trumpet, Julian Preister on trombone, and Bennie Maupin on tenor – all of whom give the record a slightly hipper, more modern feel – in keeping with the Blue Note groove of the time. Tracks are all nice and long – and titles include the originals "Turning Point" and "Slow High" – plus versions of "See Saw", "People Sure Act Funny", and "Eleanor Rigby".
Lonnie Smith - Turning Point (1969) {Blue Note Japan SHM-CD UCCQ-5127 rel 2014} (24-192 remaster)


Personnel:
Lonnie Smith - organ
Lee Morgan - trumpet
Bennie Maupin - tenor saxophone
Julian Priester - trombone
Melvin Sparks - guitar
Leo Morris - drums

Lonnie Smith - Turning Point (1969) {Blue Note Japan SHM-CD UCCQ-5127 rel 2014} (24-192 remaster)


tracklist:
01 - See Saw
02 - Slow High
03 - People Sure Act Funny
04 - Eleanor Rigby
05 - Turning Point

Exact Audio Copy V1.0 beta 4 from 7. December 2014

EAC extraction logfile from 29. April 2015, 13:41

Lonnie Smith / Turning Point

Used drive : TSSTcorpCDDVDW SE-208DB Adapter: 1 ID: 1

Read mode : Secure
Utilize accurate stream : Yes
Defeat audio cache : Yes
Make use of C2 pointers : No

Read offset correction : 6
Overread into Lead-In and Lead-Out : No
Fill up missing offset samples with silence : Yes
Delete leading and trailing silent blocks : No
Null samples used in CRC calculations : Yes
Used interface : Native Win32 interface for Win NT & 2000
Gap handling : Appended to previous track

Used output format : User Defined Encoder
Selected bitrate : 1024 kBit/s
Quality : High
Add ID3 tag : No
Command line compressor : C:\Program Files (x86)\FLAC Frontend\tools\flac.exe
Additional command line options : -8 -V -T "ARTIST=%artist%" -T "TITLE=%title%" -T "ALBUM=%albumtitle%" -T "DATE=%year%" -T "TRACKNUMBER=%tracknr%" -T "TOTALTRACKS=%numtracks%" -T "GENRE=%genre%" -T "ALBUMARTIST=%albumartist%" -T "ALBUM ARTIST=%albumartist%" -T "COMMENT=EAC Secure Mode, Test & Copy, AccurateRip, FLAC -8" %source%


TOC of the extracted CD

Track | Start | Length | Start sector | End sector
––––––––––––––––––––––––––––-
1 | 0:00.00 | 5:59.04 | 0 | 26928
2 | 5:59.04 | 6:32.65 | 26929 | 56393
3 | 12:31.69 | 6:27.32 | 56394 | 85450
4 | 18:59.26 | 9:21.62 | 85451 | 127587
5 | 28:21.13 | 8:26.54 | 127588 | 165591


Track 1

Filename D:\_EAC\Lonnie Smith - Turning Point (1969) [FLAC] {2015 Japan SHM-CD Blue Note 24-192 Remaster}\01 - See Saw.wav

Pre-gap length 0:00:02.00

Peak level 98.0 %
Extraction speed 1.1 X
Track quality 100.0 %
Test CRC D9138D0C
Copy CRC D9138D0C
Track not present in AccurateRip database
Copy OK

Track 2

Filename D:\_EAC\Lonnie Smith - Turning Point (1969) [FLAC] {2015 Japan SHM-CD Blue Note 24-192 Remaster}\02 - Slow High.wav

Pre-gap length 0:00:02.28

Peak level 98.2 %
Extraction speed 1.2 X
Track quality 100.0 %
Test CRC 159E3318
Copy CRC 159E3318
Track not present in AccurateRip database
Copy OK

Track 3

Filename D:\_EAC\Lonnie Smith - Turning Point (1969) [FLAC] {2015 Japan SHM-CD Blue Note 24-192 Remaster}\03 - People Sure Act Funny.wav

Pre-gap length 0:00:02.28

Peak level 99.2 %
Extraction speed 1.2 X
Track quality 99.9 %
Test CRC 8A35AFED
Copy CRC 8A35AFED
Track not present in AccurateRip database
Copy OK

Track 4

Filename D:\_EAC\Lonnie Smith - Turning Point (1969) [FLAC] {2015 Japan SHM-CD Blue Note 24-192 Remaster}\04 - Eleanor Rigby.wav

Pre-gap length 0:00:02.43

Peak level 100.0 %
Extraction speed 1.5 X
Track quality 100.0 %
Test CRC 420F485A
Copy CRC 420F485A
Track not present in AccurateRip database
Copy OK

Track 5

Filename D:\_EAC\Lonnie Smith - Turning Point (1969) [FLAC] {2015 Japan SHM-CD Blue Note 24-192 Remaster}\05 - Turning Point.wav

Pre-gap length 0:00:02.43

Peak level 98.8 %
Extraction speed 1.7 X
Track quality 100.0 %
Test CRC 229D3D7B
Copy CRC 229D3D7B
Track not present in AccurateRip database
Copy OK


None of the tracks are present in the AccurateRip database

No errors occurred

End of status report

==== Log checksum 792198AEB2B47171395F44BFE5570CDED4919FB785DEF0745F88F2B3818D644F ====


Lonnie Smith - Turning Point (1969) {Blue Note Japan SHM-CD UCCQ-5127 rel 2014} (24-192 remaster)

Lonnie Smith - Turning Point (1969) {Blue Note Japan SHM-CD UCCQ-5127 rel 2014} (24-192 remaster)


see more Blue Note Japan 75th Anniversary The Masterworks…

see more Dr. Lonnie Smith…


===