Subcategories

Louis Armstrong - The Complete Town Hall Concert (1947) {2CD 2014 Japan Jazz Collection 1000 Columbia-RCA Series SICP 4005~6}

Posted By: ruskaval
Louis Armstrong - The Complete Town Hall Concert (1947) {2CD 2014 Japan Jazz Collection 1000 Columbia-RCA Series SICP 4005~6}

Louis Armstrong - The Complete Town Hall Concert (1947) {2CD 2014 Japan Jazz Collection 1000 Columbia-RCA Series SICP 4005~6}
EAC rip (secure mode) | FLAC (tracks)+CUE+LOG -> 346 Mb | MP3 @320 -> 189 Mb
Full Artwork @ 600 dpi (png) -> 199 Mb | 5% repair rar
© 1947, 2014 RCA / Sony Music Japan | SICP 4005~6 | Mono
Jazz / Classic Jazz / Early Jazz / New Orleans Jazz / Swing

Reissue with latest 2014 DSD remastering. Comes with liner notes. One of the key turning points of Louis Armstrong's career occurred at the Town Hall concert fully documented on this two-CD set, a reissue of the earlier two-LP release. Armstrong, who had been leading a big band for 18 years, was showcased with some musical friends who were all very complementary players (including trombonist Jack Teagarden, clarinetist Peanuts Hucko and cornetist Bobby Hackett), and the results were so exciting that Armstrong soon broke up his orchestra to form a similar all-star sextet.

The recording quality of some of the numbers from this concert is erratic but the magic of the music definitely comes through. Highlights include a few tunes on which Louis is backed by just a rhythm section (including "Cornet Chop Suey" and an emotional "Dear Old Southland"), definitive versions of "Ain't Misbehavin" and "Back O'Town Blues" and a memorable feature for Jack Teagarden on "St. James Infirmary." Recommended for all Louis Armstrong fans who wish to hear the real birth of his All-Stars.
Louis Armstrong - The Complete Town Hall Concert (1947) {2CD 2014 Japan Jazz Collection 1000 Columbia-RCA Series SICP 4005~6}


Personnel:
Louis Armstrong - trumpet, vocal
Jack Teagarden - trombone, vocal
Bobby Hackett - trumpet
Peanuts Hucko - clarinet, tenor saxophone
Dick Cary - piano
Bob Haggart - bass
George Wettling - drums
Sidney Catlett - drums

tracklist:
CD1

01 - Introduction by Fred Robbins
02 - Cornet Chop Suey
03 - Our Monday Date
04 - Dear Old Southland
05 - Big Butter And Egg Man
06 - Tiger Rag
07 - Struttin' With Some Barbecue
08 - Sweethearts On Parade
09 - Saint Louis Blues
10 - Pennies From Heaven
11 - On The Sunny Side Of The Street

Louis Armstrong - The Complete Town Hall Concert (1947) {2CD 2014 Japan Jazz Collection 1000 Columbia-RCA Series SICP 4005~6}


CD2
01 - I Can't Give You Anything But Love
02 - Back O'Town Blues
03 - Ain't Misbehavin'
04 - Rockin' Chair
05 - Muskrat Ramble
06 - Save It, Pretty Mama
07 - Saint James Infirmary
08 - Royal Garden Blues
09 - Do You Know What It Means To Miss New Orleans
10 - Jack - Armstrong Blues

Louis Armstrong - The Complete Town Hall Concert (1947) {2CD 2014 Japan Jazz Collection 1000 Columbia-RCA Series SICP 4005~6}


Exact Audio Copy V1.1 from 23. June 2015

EAC extraction logfile from 12. November 2015, 21:00

Louis Armstrong / The Complete Town Hall Concert (CD1)

Used drive : TSSTcorpCDDVDW SE-208DB Adapter: 7 ID: 0

Read mode : Secure
Utilize accurate stream : Yes
Defeat audio cache : Yes
Make use of C2 pointers : No

Read offset correction : 6
Overread into Lead-In and Lead-Out : No
Fill up missing offset samples with silence : Yes
Delete leading and trailing silent blocks : No
Null samples used in CRC calculations : Yes
Used interface : Installed external ASPI interface
Gap handling : Appended to previous track

Used output format : User Defined Encoder
Selected bitrate : 1024 kBit/s
Quality : High
Add ID3 tag : No
Command line compressor : C:\Program Files (x86)\FLAC Frontend\tools\flac.exe
Additional command line options : -8 -V -T "ARTIST=%artist%" -T "TITLE=%title%" -T "ALBUM=%albumtitle%" -T "DATE=%year%" -T "TRACKNUMBER=%tracknr%" -T "TOTALTRACKS=%numtracks%" -T "GENRE=%genre%" -T "ALBUMARTIST=%albumartist%" -T "ALBUM ARTIST=%albumartist%" -T "COMMENT=EAC Secure Mode, Test & Copy, AccurateRip, FLAC -8" %source%


TOC of the extracted CD

Track | Start | Length | Start sector | End sector
––––––––––––––––––––––––––––-
1 | 0:00.00 | 0:44.18 | 0 | 3317
2 | 0:44.18 | 2:55.62 | 3318 | 16504
3 | 3:40.05 | 3:00.45 | 16505 | 30049
4 | 6:40.50 | 3:37.23 | 30050 | 46347
5 | 10:17.73 | 4:10.22 | 46348 | 65119
6 | 14:28.20 | 5:26.55 | 65120 | 89624
7 | 19:55.00 | 3:34.23 | 89625 | 105697
8 | 23:29.23 | 4:32.57 | 105698 | 126154
9 | 28:02.05 | 3:21.28 | 126155 | 141257
10 | 31:23.33 | 3:40.35 | 141258 | 157792
11 | 35:03.68 | 4:42.72 | 157793 | 179014


Track 1

Filename M:\_EAC\Louis Armstrong - The Complete Town Hall Concert (1947) [FLAC] {2CD 2014 Japan SICP 4005-6}\CD1\01 - Introduction by Fred Robbins.wav

Pre-gap length 0:00:02.00

Peak level 82.0 %
Extraction speed 1.5 X
Track quality 100.0 %
Test CRC 809EE730
Copy CRC 809EE730
Accurately ripped (confidence 2) [A541E090] (AR v2)
Copy OK

Track 2

Filename M:\_EAC\Louis Armstrong - The Complete Town Hall Concert (1947) [FLAC] {2CD 2014 Japan SICP 4005-6}\CD1\02 - Cornet Chop Suey.wav

Peak level 97.7 %
Extraction speed 2.5 X
Track quality 100.0 %
Test CRC 038F26DD
Copy CRC 038F26DD
Accurately ripped (confidence 2) [1EB788FD] (AR v2)
Copy OK

Track 3

Filename M:\_EAC\Louis Armstrong - The Complete Town Hall Concert (1947) [FLAC] {2CD 2014 Japan SICP 4005-6}\CD1\03 - Our Monday Date.wav

Peak level 97.7 %
Extraction speed 2.1 X
Track quality 99.9 %
Test CRC B562160A
Copy CRC B562160A
Accurately ripped (confidence 2) [3BA1B9F3] (AR v2)
Copy OK

Track 4

Filename M:\_EAC\Louis Armstrong - The Complete Town Hall Concert (1947) [FLAC] {2CD 2014 Japan SICP 4005-6}\CD1\04 - Dear Old Southland.wav

Peak level 97.7 %
Extraction speed 3.0 X
Track quality 100.0 %
Test CRC 266F07EF
Copy CRC 266F07EF
Accurately ripped (confidence 2) [4A6EE06E] (AR v2)
Copy OK

Track 5

Filename M:\_EAC\Louis Armstrong - The Complete Town Hall Concert (1947) [FLAC] {2CD 2014 Japan SICP 4005-6}\CD1\05 - Big Butter And Egg Man.wav

Peak level 97.7 %
Extraction speed 2.7 X
Track quality 99.9 %
Test CRC 8B783964
Copy CRC 8B783964
Accurately ripped (confidence 2) [5FE62FA3] (AR v2)
Copy OK

Track 6

Filename M:\_EAC\Louis Armstrong - The Complete Town Hall Concert (1947) [FLAC] {2CD 2014 Japan SICP 4005-6}\CD1\06 - Tiger Rag.wav

Peak level 97.7 %
Extraction speed 3.6 X
Track quality 100.0 %
Test CRC 0688CBF8
Copy CRC 0688CBF8
Accurately ripped (confidence 2) [4612CB6A] (AR v2)
Copy OK

Track 7

Filename M:\_EAC\Louis Armstrong - The Complete Town Hall Concert (1947) [FLAC] {2CD 2014 Japan SICP 4005-6}\CD1\07 - Struttin' With Some Barbecue.wav

Peak level 97.7 %
Extraction speed 3.6 X
Track quality 100.0 %
Test CRC 449B3BFE
Copy CRC 449B3BFE
Accurately ripped (confidence 2) [A0355CE9] (AR v2)
Copy OK

Track 8

Filename M:\_EAC\Louis Armstrong - The Complete Town Hall Concert (1947) [FLAC] {2CD 2014 Japan SICP 4005-6}\CD1\08 - Sweethearts On Parade.wav

Peak level 97.7 %
Extraction speed 4.0 X
Track quality 100.0 %
Test CRC D8140975
Copy CRC D8140975
Accurately ripped (confidence 2) [708FB87F] (AR v2)
Copy OK

Track 9

Filename M:\_EAC\Louis Armstrong - The Complete Town Hall Concert (1947) [FLAC] {2CD 2014 Japan SICP 4005-6}\CD1\09 - Saint Louis Blues.wav

Peak level 97.7 %
Extraction speed 4.0 X
Track quality 100.0 %
Test CRC C46D44BB
Copy CRC C46D44BB
Accurately ripped (confidence 2) [1EFB8A99] (AR v2)
Copy OK

Track 10

Filename M:\_EAC\Louis Armstrong - The Complete Town Hall Concert (1947) [FLAC] {2CD 2014 Japan SICP 4005-6}\CD1\10 - Pennies From Heaven.wav

Peak level 97.7 %
Extraction speed 4.2 X
Track quality 100.0 %
Test CRC DC81FCC0
Copy CRC DC81FCC0
Accurately ripped (confidence 2) [3B921BBF] (AR v2)
Copy OK

Track 11

Filename M:\_EAC\Louis Armstrong - The Complete Town Hall Concert (1947) [FLAC] {2CD 2014 Japan SICP 4005-6}\CD1\11 - On The Sunny Side Of The Street.wav

Peak level 97.7 %
Extraction speed 4.5 X
Track quality 100.0 %
Test CRC 7001D7BD
Copy CRC 7001D7BD
Accurately ripped (confidence 2) [C762739D] (AR v2)
Copy OK


All tracks accurately ripped

No errors occurred

End of status report

==== Log checksum 76A4CA98BAF06EEA898CA0918395DBE37D6ED33A23C6104BEF3FEFABE43F57E8 ====

Exact Audio Copy V1.1 from 23. June 2015

EAC extraction logfile from 12. November 2015, 21:42

Louis Armstrong / The Complete Town Hall Concert (CD2)

Used drive : TSSTcorpCDDVDW SE-208DB Adapter: 7 ID: 0

Read mode : Secure
Utilize accurate stream : Yes
Defeat audio cache : Yes
Make use of C2 pointers : No

Read offset correction : 6
Overread into Lead-In and Lead-Out : No
Fill up missing offset samples with silence : Yes
Delete leading and trailing silent blocks : No
Null samples used in CRC calculations : Yes
Used interface : Installed external ASPI interface
Gap handling : Appended to previous track

Used output format : User Defined Encoder
Selected bitrate : 1024 kBit/s
Quality : High
Add ID3 tag : No
Command line compressor : C:\Program Files (x86)\FLAC Frontend\tools\flac.exe
Additional command line options : -8 -V -T "ARTIST=%artist%" -T "TITLE=%title%" -T "ALBUM=%albumtitle%" -T "DATE=%year%" -T "TRACKNUMBER=%tracknr%" -T "TOTALTRACKS=%numtracks%" -T "GENRE=%genre%" -T "ALBUMARTIST=%albumartist%" -T "ALBUM ARTIST=%albumartist%" -T "COMMENT=EAC Secure Mode, Test & Copy, AccurateRip, FLAC -8" %source%


TOC of the extracted CD

Track | Start | Length | Start sector | End sector
––––––––––––––––––––––––––––-
1 | 0:00.00 | 3:11.17 | 0 | 14341
2 | 3:11.17 | 4:09.05 | 14342 | 33021
3 | 7:20.22 | 3:51.43 | 33022 | 50389
4 | 11:11.65 | 5:05.50 | 50390 | 73314
5 | 16:17.40 | 2:10.12 | 73315 | 83076
6 | 18:27.52 | 4:25.03 | 83077 | 102954
7 | 22:52.55 | 3:36.55 | 102955 | 119209
8 | 26:29.35 | 4:40.27 | 119210 | 140236
9 | 31:09.62 | 3:32.50 | 140237 | 156186
10 | 34:42.37 | 4:35.14 | 156187 | 176825


Track 1

Filename M:\_EAC\Louis Armstrong - The Complete Town Hall Concert (1947) [FLAC] {2CD 2014 Japan SICP 4005-6}\CD2\01 - I Can't Give You Anything But Love.wav

Pre-gap length 0:00:02.00

Peak level 97.7 %
Extraction speed 1.9 X
Track quality 99.9 %
Test CRC 84E90704
Copy CRC 84E90704
Track not present in AccurateRip database
Copy OK

Track 2

Filename M:\_EAC\Louis Armstrong - The Complete Town Hall Concert (1947) [FLAC] {2CD 2014 Japan SICP 4005-6}\CD2\02 - Back O'Town Blues.wav

Peak level 97.7 %
Extraction speed 2.8 X
Track quality 100.0 %
Test CRC 972E4C59
Copy CRC 972E4C59
Track not present in AccurateRip database
Copy OK

Track 3

Filename M:\_EAC\Louis Armstrong - The Complete Town Hall Concert (1947) [FLAC] {2CD 2014 Japan SICP 4005-6}\CD2\03 - Ain't Misbehavin'.wav

Peak level 97.7 %
Extraction speed 3.1 X
Track quality 100.0 %
Test CRC 2B34C6F9
Copy CRC 2B34C6F9
Track not present in AccurateRip database
Copy OK

Track 4

Filename M:\_EAC\Louis Armstrong - The Complete Town Hall Concert (1947) [FLAC] {2CD 2014 Japan SICP 4005-6}\CD2\04 - Rockin' Chair.wav

Peak level 97.7 %
Extraction speed 3.5 X
Track quality 100.0 %
Test CRC 0DFF2ECC
Copy CRC 0DFF2ECC
Track not present in AccurateRip database
Copy OK

Track 5

Filename M:\_EAC\Louis Armstrong - The Complete Town Hall Concert (1947) [FLAC] {2CD 2014 Japan SICP 4005-6}\CD2\05 - Muskrat Ramble.wav

Peak level 97.7 %
Extraction speed 2.2 X
Track quality 99.9 %
Test CRC C7F7A65A
Copy CRC C7F7A65A
Track not present in AccurateRip database
Copy OK

Track 6

Filename M:\_EAC\Louis Armstrong - The Complete Town Hall Concert (1947) [FLAC] {2CD 2014 Japan SICP 4005-6}\CD2\06 - Save It, Pretty Mama.wav

Peak level 97.7 %
Extraction speed 3.7 X
Track quality 100.0 %
Test CRC D2B9B703
Copy CRC D2B9B703
Track not present in AccurateRip database
Copy OK

Track 7

Filename M:\_EAC\Louis Armstrong - The Complete Town Hall Concert (1947) [FLAC] {2CD 2014 Japan SICP 4005-6}\CD2\07 - Saint James Infirmary.wav

Peak level 97.7 %
Extraction speed 3.8 X
Track quality 100.0 %
Test CRC 63826435
Copy CRC 63826435
Track not present in AccurateRip database
Copy OK

Track 8

Filename M:\_EAC\Louis Armstrong - The Complete Town Hall Concert (1947) [FLAC] {2CD 2014 Japan SICP 4005-6}\CD2\08 - Royal Garden Blues.wav

Peak level 97.7 %
Extraction speed 4.1 X
Track quality 100.0 %
Test CRC FEC95E62
Copy CRC FEC95E62
Track not present in AccurateRip database
Copy OK

Track 9

Filename M:\_EAC\Louis Armstrong - The Complete Town Hall Concert (1947) [FLAC] {2CD 2014 Japan SICP 4005-6}\CD2\09 - Do You Know What It Means To Miss New Orleans.wav

Peak level 97.7 %
Extraction speed 4.1 X
Track quality 100.0 %
Test CRC FCA59EEB
Copy CRC FCA59EEB
Track not present in AccurateRip database
Copy OK

Track 10

Filename M:\_EAC\Louis Armstrong - The Complete Town Hall Concert (1947) [FLAC] {2CD 2014 Japan SICP 4005-6}\CD2\10 - Jack - Armstrong Blues.wav

Peak level 97.7 %
Extraction speed 4.4 X
Track quality 100.0 %
Test CRC 9F1B6633
Copy CRC 9F1B6633
Track not present in AccurateRip database
Copy OK


None of the tracks are present in the AccurateRip database

No errors occurred

End of status report

==== Log checksum 6B4C2B352061543756F9D3C9B7896D6B91F099D860C034E5C84FA6AB5C2D5D2A ====


Louis Armstrong - The Complete Town Hall Concert (1947) {2CD 2014 Japan Jazz Collection 1000 Columbia-RCA Series SICP 4005~6}


see more Japan Jazz Collection 1000 Columbia-RCA Series…


===