Tags
Language
Tags

Louis Jordan - At The Swing Cat's Ball (1999) {MCA Records MCAD-12044 rec 1938-1954}

Posted By: ruskaval
Louis Jordan - At The Swing Cat's Ball (1999) {MCA Records MCAD-12044 rec 1938-1954}

Louis Jordan - At The Swing Cat's Ball (1999) {MCA Records MCAD-12044 rec 1938-1954}
XLD rip (secure mode) | FLAC (tracks)+CUE+LOG -> 274 Mb | MP3 @320 -> 130 Mb
Full Artwork @ 300 dpi (png) -> 54 Mb | 5% repair rar
© 1938-54, 1999 MCA Records | MCAD-12044
Jazz / Swing / Jump Blues / Jive

Perhaps the most renowned performer from the '40's Jump, Jive and Swing Era, Jordan created a style and songbook that continues to be influential, and he's acknowledged by artists from B.B. King to Brian Setzer. The #1 Black hit-maker of the '40's, Jordan is in every Hall of Fame imaginable. The 1st full-length, in-depth compilation to focus on Jordan's most swinging music features 12 tracks making their U.S. CD debut.
Released as an attempt to cash in on the swing revival that swept through America in the late '90s, MCA's At the Swing Cat's Ball contains 12 songs that spotlight Louis Jordan's hardest-swinging material. Since Jordan towered above most jump blues practitioners in the '40s, it's easy to enjoy the compilation, even if you question the reasons behind its assembly. Since it concentrates on swinging material, it isn't a strict hits compilation (even though there are hits here), but that probably won't bother Generation Y swingers, whom this compilation is clearly targeted at.
Louis Jordan - At The Swing Cat's Ball (1999) {MCA Records MCAD-12044 rec 1938-1954}


Tracklisting:
01 - Choo Choo Ch'Boogie (1946 Single Version)
02 - At The Swing Cat's Ball
03 - Flat Face
04 - Keep A Knockin' (But You Can't Come In)
05 - Swinging In A Coconut Tree (Instrumental)
06 - Doug The Jitterbug
07 - The Chicks I Pick Are Slender, Tender, And Tall
08 - All For The Love Of Lil
09 - Reet Petite And Gone
10 - Barnyard Boogie
11 - Have You Got The Gumption
12 - Chicky-Mo, Craney Crow
13 - You're Much Too Fat (And That's That)
14 - Safe, Sane And Single
15 - Onion
16 - Beans And Cornbread
17 - School Days
18 - It's A Great, Great Pleasure
19 - Hog Wash
20 - (Crazy 'Bout) Lollypop

X Lossless Decoder version 20130407 (143.0)

XLD extraction logfile from 2014-09-06 15:55:04 -0700

Louis Jordan & His Tympany Five / At The Swing Cat's Ball

Used drive : HL-DT-ST DVDRW GA32N (revision KE06)
Media type : Pressed CD

Ripper mode : XLD Secure Ripper
Disable audio cache : OK for the drive with a cache less than 1375KiB
Make use of C2 pointers : NO
Read offset correction : 103
Max retry count : 100
Gap status : Analyzed, Appended (except HTOA)

TOC of the extracted CD
Track | Start | Length | Start sector | End sector
––––––––––––––––––––––––––––-
1 | 00:00:00 | 02:44:45 | 0 | 12344
2 | 02:44:45 | 02:29:30 | 12345 | 23549
3 | 05:14:00 | 02:41:30 | 23550 | 35654
4 | 07:55:30 | 02:32:40 | 35655 | 47094
5 | 10:27:70 | 02:44:12 | 47095 | 59406
6 | 13:12:07 | 02:32:60 | 59407 | 70866
7 | 15:44:67 | 02:26:05 | 70867 | 81821
8 | 18:10:72 | 02:52:65 | 81822 | 94786
9 | 21:03:62 | 02:44:38 | 94787 | 107124
10 | 23:48:25 | 02:47:30 | 107125 | 119679
11 | 26:35:55 | 03:04:15 | 119680 | 133494
12 | 29:39:70 | 02:28:05 | 133495 | 144599
13 | 32:08:00 | 02:43:02 | 144600 | 156826
14 | 34:51:02 | 02:42:03 | 156827 | 168979
15 | 37:33:05 | 02:52:27 | 168980 | 181906
16 | 40:25:32 | 02:49:23 | 181907 | 194604
17 | 43:14:55 | 02:34:32 | 194605 | 206186
18 | 45:49:12 | 03:09:68 | 206187 | 220429
19 | 48:59:05 | 02:59:20 | 220430 | 233874
20 | 51:58:25 | 02:27:57 | 233875 | 244956

AccurateRip Summary (DiscID: 0026bad4-023a4564-200cc214)
Track 01 : OK (v1, confidence 1/1)
Track 02 : OK (v1, confidence 1/1)
Track 03 : OK (v1, confidence 1/1)
Track 04 : OK (v1, confidence 1/1)
Track 05 : OK (v1, confidence 1/1)
Track 06 : OK (v1, confidence 1/1)
Track 07 : OK (v1, confidence 1/1)
Track 08 : OK (v1, confidence 1/1)
Track 09 : OK (v1, confidence 1/1)
Track 10 : OK (v1, confidence 1/1)
Track 11 : OK (v1, confidence 1/1)
Track 12 : OK (v1, confidence 1/1)
Track 13 : OK (v1, confidence 1/1)
Track 14 : OK (v1, confidence 1/1)
Track 15 : OK (v1, confidence 1/1)
Track 16 : OK (v1, confidence 1/1)
Track 17 : OK (v1, confidence 1/1)
Track 18 : OK (v1, confidence 1/1)
Track 19 : OK (v1, confidence 1/1)
Track 20 : OK (v1, confidence 1/1)
->All tracks accurately ripped.

All Tracks
Album gain : -5.90 dB
Peak : 0.983582
Statistics
Read error : 0
Jitter error (maybe fixed) : 0
Retry sector count : 0
Damaged sector count : 0

Track 01
Filename : /Volumes/OWC Mercury Elite Pro - #2/Needs something/ Music/Louis Jordan - At The Swing Cat's Ball (1999) [FLAC] {MCA MCAD-12044}/01 - Choo Choo Ch'Boogie (1946 Single Version).flac
Pre-gap length : 00:02:00

Track gain : -4.86 dB
Peak : 0.981110
CRC32 hash (test run) : 92AF40BC
CRC32 hash : 92AF40BC
CRC32 hash (skip zero) : F446689C
AccurateRip v1 signature : F33CA20C
AccurateRip v2 signature : 1BEAFBFD
->Accurately ripped (v1, confidence 1/1)
Statistics
Read error : 0
Jitter error (maybe fixed) : 0
Retry sector count : 0
Damaged sector count : 0

Track 02
Filename : /Volumes/OWC Mercury Elite Pro - #2/Needs something/ Music/Louis Jordan - At The Swing Cat's Ball (1999) [FLAC] {MCA MCAD-12044}/02 - At The Swing Cat's Ball.flac
Pre-gap length : 00:02:43

Track gain : -2.98 dB
Peak : 0.982422
CRC32 hash (test run) : B3CCAA5B
CRC32 hash : B3CCAA5B
CRC32 hash (skip zero) : 8E6347FC
AccurateRip v1 signature : B1E01C2F
AccurateRip v2 signature : 6AEC411E
->Accurately ripped (v1, confidence 1/1)
Statistics
Read error : 0
Jitter error (maybe fixed) : 0
Retry sector count : 0
Damaged sector count : 0

Track 03
Filename : /Volumes/OWC Mercury Elite Pro - #2/Needs something/ Music/Louis Jordan - At The Swing Cat's Ball (1999) [FLAC] {MCA MCAD-12044}/03 - Flat Face.flac
Pre-gap length : 00:02:43

Track gain : -5.62 dB
Peak : 0.982941
CRC32 hash (test run) : 60B467FC
CRC32 hash : 60B467FC
CRC32 hash (skip zero) : 3590260C
AccurateRip v1 signature : 9D7AA229
AccurateRip v2 signature : D1F32453
->Accurately ripped (v1, confidence 1/1)
Statistics
Read error : 0
Jitter error (maybe fixed) : 0
Retry sector count : 0
Damaged sector count : 0

Track 04
Filename : /Volumes/OWC Mercury Elite Pro - #2/Needs something/ Music/Louis Jordan - At The Swing Cat's Ball (1999) [FLAC] {MCA MCAD-12044}/04 - Keep A Knockin' (But You Can't Come In).flac
Pre-gap length : 00:02:43

Track gain : -4.79 dB
Peak : 0.982666
CRC32 hash (test run) : 5A6E1B25
CRC32 hash : 5A6E1B25
CRC32 hash (skip zero) : 394A44D3
AccurateRip v1 signature : D14B8ADA
AccurateRip v2 signature : 6BF765BD
->Accurately ripped (v1, confidence 1/1)
Statistics
Read error : 0
Jitter error (maybe fixed) : 0
Retry sector count : 0
Damaged sector count : 0

Track 05
Filename : /Volumes/OWC Mercury Elite Pro - #2/Needs something/ Music/Louis Jordan - At The Swing Cat's Ball (1999) [FLAC] {MCA MCAD-12044}/05 - Swinging In A Coconut Tree (Instrumental).flac
Pre-gap length : 00:02:43

Track gain : -4.12 dB
Peak : 0.981384
CRC32 hash (test run) : 24BA7BEC
CRC32 hash : 24BA7BEC
CRC32 hash (skip zero) : 06A28085
AccurateRip v1 signature : CF3C516E
AccurateRip v2 signature : 17751258
->Accurately ripped (v1, confidence 1/1)
Statistics
Read error : 0
Jitter error (maybe fixed) : 0
Retry sector count : 0
Damaged sector count : 0

Track 06
Filename : /Volumes/OWC Mercury Elite Pro - #2/Needs something/ Music/Louis Jordan - At The Swing Cat's Ball (1999) [FLAC] {MCA MCAD-12044}/06 - Doug The Jitterbug.flac
Pre-gap length : 00:02:42

Track gain : -4.26 dB
Peak : 0.980988
CRC32 hash (test run) : 46A43D83
CRC32 hash : 46A43D83
CRC32 hash (skip zero) : 59C7762E
AccurateRip v1 signature : 8B4499D0
AccurateRip v2 signature : 1BC4F0E9
->Accurately ripped (v1, confidence 1/1)
Statistics
Read error : 0
Jitter error (maybe fixed) : 0
Retry sector count : 0
Damaged sector count : 0

Track 07
Filename : /Volumes/OWC Mercury Elite Pro - #2/Needs something/ Music/Louis Jordan - At The Swing Cat's Ball (1999) [FLAC] {MCA MCAD-12044}/07 - The Chicks I Pick Are Slender, Tender, And Tall.flac
Pre-gap length : 00:02:42

Track gain : -2.88 dB
Peak : 0.983185
CRC32 hash (test run) : 6DCDCD19
CRC32 hash : 6DCDCD19
CRC32 hash (skip zero) : FE0FE0A0
AccurateRip v1 signature : 339B465B
AccurateRip v2 signature : 88541042
->Accurately ripped (v1, confidence 1/1)
Statistics
Read error : 0
Jitter error (maybe fixed) : 0
Retry sector count : 0
Damaged sector count : 0

Track 08
Filename : /Volumes/OWC Mercury Elite Pro - #2/Needs something/ Music/Louis Jordan - At The Swing Cat's Ball (1999) [FLAC] {MCA MCAD-12044}/08 - All For The Love Of Lil.flac
Pre-gap length : 00:02:42

Track gain : -5.87 dB
Peak : 0.982117
CRC32 hash (test run) : 0DD94A91
CRC32 hash : 0DD94A91
CRC32 hash (skip zero) : 3F4D655F
AccurateRip v1 signature : 007E7A7B
AccurateRip v2 signature : D42527DE
->Accurately ripped (v1, confidence 1/1)
Statistics
Read error : 0
Jitter error (maybe fixed) : 0
Retry sector count : 0
Damaged sector count : 0

Track 09
Filename : /Volumes/OWC Mercury Elite Pro - #2/Needs something/ Music/Louis Jordan - At The Swing Cat's Ball (1999) [FLAC] {MCA MCAD-12044}/09 - Reet Petite And Gone.flac
Pre-gap length : 00:02:42

Track gain : -5.80 dB
Peak : 0.981750
CRC32 hash (test run) : 8F35DCB4
CRC32 hash : 8F35DCB4
CRC32 hash (skip zero) : 441BF36D
AccurateRip v1 signature : 9FBDAE32
AccurateRip v2 signature : F37AF2E7
->Accurately ripped (v1, confidence 1/1)
Statistics
Read error : 0
Jitter error (maybe fixed) : 0
Retry sector count : 0
Damaged sector count : 0

Track 10
Filename : /Volumes/OWC Mercury Elite Pro - #2/Needs something/ Music/Louis Jordan - At The Swing Cat's Ball (1999) [FLAC] {MCA MCAD-12044}/10 - Barnyard Boogie.flac
Pre-gap length : 00:02:43

Track gain : -4.95 dB
Peak : 0.982483
CRC32 hash (test run) : 4CC2C82A
CRC32 hash : 4CC2C82A
CRC32 hash (skip zero) : 84D0CFB6
AccurateRip v1 signature : E14160F4
AccurateRip v2 signature : 4752B4E1
->Accurately ripped (v1, confidence 1/1)
Statistics
Read error : 0
Jitter error (maybe fixed) : 0
Retry sector count : 0
Damaged sector count : 0

Track 11
Filename : /Volumes/OWC Mercury Elite Pro - #2/Needs something/ Music/Louis Jordan - At The Swing Cat's Ball (1999) [FLAC] {MCA MCAD-12044}/11 - Have You Got The Gumption.flac
Pre-gap length : 00:02:43

Track gain : -5.43 dB
Peak : 0.980011
CRC32 hash (test run) : E9D0E904
CRC32 hash : E9D0E904
CRC32 hash (skip zero) : 760B0CA2
AccurateRip v1 signature : 33B5FE9B
AccurateRip v2 signature : EAA47424
->Accurately ripped (v1, confidence 1/1)
Statistics
Read error : 0
Jitter error (maybe fixed) : 0
Retry sector count : 0
Damaged sector count : 0

Track 12
Filename : /Volumes/OWC Mercury Elite Pro - #2/Needs something/ Music/Louis Jordan - At The Swing Cat's Ball (1999) [FLAC] {MCA MCAD-12044}/12 - Chicky-Mo, Craney Crow.flac
Pre-gap length : 00:02:43

Track gain : -7.09 dB
Peak : 0.982269
CRC32 hash (test run) : 37C7A147
CRC32 hash : 37C7A147
CRC32 hash (skip zero) : A2313A43
AccurateRip v1 signature : A837D6F7
AccurateRip v2 signature : EF22FACD
->Accurately ripped (v1, confidence 1/1)
Statistics
Read error : 0
Jitter error (maybe fixed) : 0
Retry sector count : 0
Damaged sector count : 0

Track 13
Filename : /Volumes/OWC Mercury Elite Pro - #2/Needs something/ Music/Louis Jordan - At The Swing Cat's Ball (1999) [FLAC] {MCA MCAD-12044}/13 - You're Much Too Fat (And That's That).flac
Pre-gap length : 00:02:43

Track gain : -6.22 dB
Peak : 0.980957
CRC32 hash (test run) : 5C812DAB
CRC32 hash : 5C812DAB
CRC32 hash (skip zero) : FB7935CA
AccurateRip v1 signature : 451E35F7
AccurateRip v2 signature : 9A16817D
->Accurately ripped (v1, confidence 1/1)
Statistics
Read error : 0
Jitter error (maybe fixed) : 0
Retry sector count : 0
Damaged sector count : 0

Track 14
Filename : /Volumes/OWC Mercury Elite Pro - #2/Needs something/ Music/Louis Jordan - At The Swing Cat's Ball (1999) [FLAC] {MCA MCAD-12044}/14 - Safe, Sane And Single.flac
Pre-gap length : 00:02:42

Track gain : -6.58 dB
Peak : 0.983337
CRC32 hash (test run) : B20CAFB9
CRC32 hash : B20CAFB9
CRC32 hash (skip zero) : 926EA1BC
AccurateRip v1 signature : 3946D71D
AccurateRip v2 signature : CF89A555
->Accurately ripped (v1, confidence 1/1)
Statistics
Read error : 0
Jitter error (maybe fixed) : 0
Retry sector count : 0
Damaged sector count : 0

Track 15
Filename : /Volumes/OWC Mercury Elite Pro - #2/Needs something/ Music/Louis Jordan - At The Swing Cat's Ball (1999) [FLAC] {MCA MCAD-12044}/15 - Onion.flac
Pre-gap length : 00:02:40

Track gain : -5.38 dB
Peak : 0.978821
CRC32 hash (test run) : 0EEB919A
CRC32 hash : 0EEB919A
CRC32 hash (skip zero) : B7AC09D4
AccurateRip v1 signature : C02E74CB
AccurateRip v2 signature : 84833EE9
->Accurately ripped (v1, confidence 1/1)
Statistics
Read error : 0
Jitter error (maybe fixed) : 0
Retry sector count : 0
Damaged sector count : 0

Track 16
Filename : /Volumes/OWC Mercury Elite Pro - #2/Needs something/ Music/Louis Jordan - At The Swing Cat's Ball (1999) [FLAC] {MCA MCAD-12044}/16 - Beans And Cornbread.flac
Pre-gap length : 00:02:42

Track gain : -6.49 dB
Peak : 0.981598
CRC32 hash (test run) : 8AF8AFA4
CRC32 hash : 8AF8AFA4
CRC32 hash (skip zero) : E39A4B96
AccurateRip v1 signature : FAF6A26E
AccurateRip v2 signature : 4CA8DD46
->Accurately ripped (v1, confidence 1/1)
Statistics
Read error : 0
Jitter error (maybe fixed) : 0
Retry sector count : 0
Damaged sector count : 0

Track 17
Filename : /Volumes/OWC Mercury Elite Pro - #2/Needs something/ Music/Louis Jordan - At The Swing Cat's Ball (1999) [FLAC] {MCA MCAD-12044}/17 - School Days.flac
Pre-gap length : 00:02:43

Track gain : -4.16 dB
Peak : 0.983582
CRC32 hash (test run) : AC47F15B
CRC32 hash : AC47F15B
CRC32 hash (skip zero) : 64141408
AccurateRip v1 signature : F11A4F56
AccurateRip v2 signature : 61D18CF2
->Accurately ripped (v1, confidence 1/1)
Statistics
Read error : 0
Jitter error (maybe fixed) : 0
Retry sector count : 0
Damaged sector count : 0

Track 18
Filename : /Volumes/OWC Mercury Elite Pro - #2/Needs something/ Music/Louis Jordan - At The Swing Cat's Ball (1999) [FLAC] {MCA MCAD-12044}/18 - It's A Great, Great Pleasure.flac
Pre-gap length : 00:02:42

Track gain : -8.21 dB
Peak : 0.869690
CRC32 hash (test run) : 20FDE6D7
CRC32 hash : 20FDE6D7
CRC32 hash (skip zero) : 84C5BA70
AccurateRip v1 signature : CA59DFD4
AccurateRip v2 signature : 7908B08C
->Accurately ripped (v1, confidence 1/1)
Statistics
Read error : 0
Jitter error (maybe fixed) : 0
Retry sector count : 0
Damaged sector count : 0

Track 19
Filename : /Volumes/OWC Mercury Elite Pro - #2/Needs something/ Music/Louis Jordan - At The Swing Cat's Ball (1999) [FLAC] {MCA MCAD-12044}/19 - Hog Wash.flac
Pre-gap length : 00:02:43

Track gain : -5.78 dB
Peak : 0.819824
CRC32 hash (test run) : 15251A40
CRC32 hash : 15251A40
CRC32 hash (skip zero) : 128F56EF
AccurateRip v1 signature : 31C24236
AccurateRip v2 signature : 9725B36E
->Accurately ripped (v1, confidence 1/1)
Statistics
Read error : 0
Jitter error (maybe fixed) : 0
Retry sector count : 0
Damaged sector count : 0

Track 20
Filename : /Volumes/OWC Mercury Elite Pro - #2/Needs something/ Music/Louis Jordan - At The Swing Cat's Ball (1999) [FLAC] {MCA MCAD-12044}/20 - (Crazy 'Bout) Lollypop.flac
Pre-gap length : 00:02:43

Track gain : -7.57 dB
Peak : 0.932159
CRC32 hash (test run) : ADA19D05
CRC32 hash : ADA19D05
CRC32 hash (skip zero) : AA3AFB50
AccurateRip v1 signature : 5A180988
AccurateRip v2 signature : 23886546
->Accurately ripped (v1, confidence 1/1)
Statistics
Read error : 0
Jitter error (maybe fixed) : 0
Retry sector count : 0
Damaged sector count : 0

No errors occurred

End of status report

––-BEGIN XLD SIGNATURE––-
1ZML0OwvV_T4BiaWSxuqFc9Oga2EeaVyvMca2A1yRRiZNdFNLF5JerzFfAf01_mIPk5U2gTrCW3h85H8q5GhyPb7M1gFOKSbpLv_2U0
––-END XLD SIGNATURE––-


Louis Jordan - At The Swing Cat's Ball (1999) {MCA Records MCAD-12044 rec 1938-1954}

Louis Jordan - At The Swing Cat's Ball (1999) {MCA Records MCAD-12044 rec 1938-1954}



===