Subcategories

Lynch Mob - The Brotherhood (Japan Edition) (2017)

Posted By: Domestos
Lynch Mob - The Brotherhood (Japan Edition) (2017)

Lynch Mob - The Brotherhood (Japan Edition) (2017)
EAC Rip | FLAC (image+.cue, log) ~ 457.92 Mb + 226.73 Mb (Scans) | 58:24
Hard Rock | Country: USA | Label: Pat Rak (GQCS-90435)

Regarded as one of the most influential guitarists of the 1980s, George Lynch’s name precedes him. Widely recognized as a key member of the band Dokken, in 1989 Lynch broke away to form his own band under the name Lynch Mob. Joining Lynch was Drummer Mick Brown, Bassist Anthony Esposito, along with Vocalist Oni Logan, and, in 1990, released their debut album Wicked Sensation featuring the single named after the album. Though sales of the album peaked at Gold status, Wicked Sensation was a hit among fans still craving ’80s Hair Metal at a time when Grunge was slowly taking over. Sadly, Lynch Mob disbanded in 1995, however, they have reunited several times and have been consistently active for nearly a decade now.

With their share of lineup changes, George Lynch and his core group – consisting of Drummer Jimmy D’Anda, Vocalist Oni Logan, and Bassist Sean McNabb – returned on September 8, 2017 with their new album, The Brotherhood, via Rat Pak Records. A follow-up to 2015’s Rebel, produced by Chris “The Wizard” Collier (Flotsam & Jetsam, Prong), The Brotherhood is appropriately titled for the family vibe among the members of Lynch Mob. Featuring 12 brand new Hard Rock songs for fans to enjoy, will The Brotherhood find its audience?

Well, for listeners who love the trademark sound of Lynch Mob, The Brotherhood continues their style of Southern Rock meets Hard Rock. It kicks off with the rocker “Main Offender” and moves smoothly into “Mr. Jekyll and Hyde,” which begins with a signature ’80s Metal drum intro, taking the listener into a state fueled by slow and heavy grooves. This vibe is also featured on the tracks such as “Dog Town Mystics,” “Black Heart Days,” and “Until the Sky Comes Down.”

That said, ballads have always been a standard for bands like Lynch Mob and “Miles Away” fits the part well. In addition, cuts including “I’ll Take Miami,” “Last Call Lady,” “Where We Started,” “The Forgotten Maiden’s Pearl,” and “Black Mountain” all fit nicely with Blues Rock attitude with hearty guitar chops. Lastly, bringing the album to a close is “Until I Get My Gold” with tame but gritty guitar work, bluesy harmonica, and a touch of tambourine.

Commenting on the album, Logan stated, “After doing quite a few miles together with this latest line-up of Sean McNabb and Jimmy D’Anda, we consider ourselves a pack of wolves, and we came up with the name The Brotherhood for the title of the next Lynch Mob album. It’s got more of an adventurous sound in part and maybe a darker, colder sound to it. We are always willing to go farther. We come from the early ’90s and it’s when we released the first Lynch Mob album, which set a sound and course for us. Here we are 27 years later, George and I are still able to keep on stretching. As a player, as a writer, that is very important to us. Otherwise we would be fooling ourselves and fooling you.”

Furthermore, Lynch himself went on to say, “We wrote this album as a band and the name of the record reflects what the band is about, and what all my bands have been about since I’ve been a kid. This is my second family. These are my brothers. You go through alot together and have a lot of experiences together. And that then becomes part of the music.” These comments are reflective of how although many issues plagued Lynch Mob over the years, they have found a way to come together and do what they love.

Also deserving a mention, there are two brand new music videos to go along with The Brotherhood, including “Main Offender’s,” which fans viewed 125,000 times in the video’s first three weeks. The second video, “Mr. Jekyll and Hyde,” produced by Jamie Brown, features a cameo appearance by the band Beasto Blanco and also shows Lynch Mob performing in a freak show, making it well-worth checking out. In enough words, Lynch Mob have put together a nice effort keeping the Hard Rock dream alive. That is why CrypticRock gives The Brotherhood 3.5 out of 5 stars. ~ review by Vito Tanzi

George Lynch - guitars
Oni Logan - vocal
Jimmy d'Anda - drums
Sean Mcnabb - bass

Lynch Mob - The Brotherhood (Japan Edition) (2017)

Track List:
01. Main Offender
02. Mr. Jekyll and Hyde
03. I’ll Take Miami
04. Last Call Lady
05. Where We Started
06. The Forgotten Maiden’s Pearl
07. Until the Sky Comes Down
08. Black Heart Days
09. Black Mountain
10. Dog Town Mystics
11. Miles Away
12. Forevermore

Exact Audio Copy V1.0 beta 6 from 9. April 2015

EAC extraction logfile from 17. October 2017, 21:59

Lynch Mob / The Brotherhood

Used drive : Optiarc DVD RW AD-7243S Adapter: 2 ID: 0

Read mode : Secure
Utilize accurate stream : Yes
Defeat audio cache : Yes
Make use of C2 pointers : No

Read offset correction : 48
Overread into Lead-In and Lead-Out : No
Fill up missing offset samples with silence : Yes
Delete leading and trailing silent blocks : No
Null samples used in CRC calculations : Yes
Used interface : Installed external ASPI interface

Used output format : User Defined Encoder
Selected bitrate : 768 kBit/s
Quality : High
Add ID3 tag : No
Command line compressor : D:\Flac\flac-1.3.1-win\win64\flac.exe
Additional command line options : -V -8 -T "Date=%year%" -T "Genre=%genre%" %source%

TOC of the extracted CD

Track | Start | Length | Start sector | End sector
––––––––––––––––––––––––––––-
1 | 0:00.00 | 3:58.17 | 0 | 17866
2 | 3:58.17 | 5:28.12 | 17867 | 42478
3 | 9:26.29 | 4:27.67 | 42479 | 62570
4 | 13:54.21 | 5:47.08 | 62571 | 88603
5 | 19:41.29 | 5:12.00 | 88604 | 112003
6 | 24:53.29 | 5:04.59 | 112004 | 134862
7 | 29:58.13 | 4:55.23 | 134863 | 157010
8 | 34:53.36 | 5:29.12 | 157011 | 181697
9 | 40:22.48 | 4:33.04 | 181698 | 202176
10 | 44:55.52 | 6:15.07 | 202177 | 230308
11 | 51:10.59 | 4:56.69 | 230309 | 252577
12 | 56:07.53 | 4:57.65 | 252578 | 274917

Range status and errors

Selected range

Filename D:\Varvaar r\Lynch Mob[2017]The Brotherhood (Japan-GQCS-90435)\Lynch Mob - The Brotherhood.wav

Peak level 100.0 %
Extraction speed 4.0 X
Range quality 100.0 %
Test CRC F1F9332D
Copy CRC F1F9332D
Copy OK

No errors occurred

AccurateRip summary

Track 1 not present in database
Track 2 not present in database
Track 3 not present in database
Track 4 not present in database
Track 5 not present in database
Track 6 not present in database
Track 7 not present in database
Track 8 not present in database
Track 9 not present in database
Track 10 not present in database
Track 11 not present in database
Track 12 not present in database

None of the tracks are present in the AccurateRip database

End of status report

==== Log checksum FBE1463053817BEE13965E98C2D5B6F8225A8F28C281AC9CAEE45FCC68A13DB9 ====

All thanks go to the Z

More Music in My Blog
Follow My RSS Channel