Tags
Language
Tags

Madness - Oui Oui Si Si Ja Ja Da Da (2012) {Cooking Vinyl}

Posted By: Hungry Mind
Madness - Oui Oui Si Si Ja Ja Da Da (2012) {Cooking Vinyl}

Madness - Oui Oui Si Si Ja Ja Da Da (2012) {Cooking Vinyl}
EAC Rip | FLAC (tracks+.cue+log) - 362 MB | Scans JPG - 83 MB | MP3 CBR 320 kbps (LAME 3.98) - 113 MB
Genre: ska | RAR 5% Rec. | Label: Cooking Vinyl | CAT # 5053105503322 | 2012

Fresh off their triumphant performances on the roof of Buckingham Palace, a number of high profile Music Festivals and the 2012 Olympic Closing Ceremony. Madness returns with their 10th Studio Album. In addition to a great Album Oui Oui Si Si Ja Ja Da Da offers up legendary Artwork from Sir Peter Blake who was responsible for the Artwork for Sgt. Peppers Lonely Hearts Club Band. With their constant Madstocks and concerts, Madness never went away, but their 2009 album The Liberty of Norton Folgate – their first album original material in ten years – felt like a full-fledged comeback, a return to the brilliant form of 1982's The Rise & Fall, the album that firmly positioned the band in the grand tradition of British pop.
Madness - Oui Oui Si Si Ja Ja Da Da (2012) {Cooking Vinyl}

Oui, Oui, Si, Si, Ja, Ja, Da, Da, the 2012 sequel to Liberty, proves the 2010 comeback was no fluke, with its equally clever and confident collection of savvy pop and ska, tunes that are effervescently melodic, lyrically nimble, and giddy with their dexterity. With an opening song that posits itself to be an explicit sequel to Madness' signature hit "My Girl," this certainly recalls Madness' new wave glory days, but Madness is under no illusion that they're still a young band. If anything, they're reveling in their advancing age, relishing the opportunity to look back – in their heart they always were nostalgic – and enjoying playing pop, soul, ska, reggae, and R&B with their old mates. But Oui, Oui isn't living in the past, it's using the past to address the present, which gives some soul to these nifty little songs, and turns this album into another mini latter-day gem from the Nutty Boys.

Madness Info

TRACKLIST
01. My Girl 2
02. Never Knew Your Name
03. La Luna
04. How Can I Tell You
05. Kitchen Floor
06. Misery
07. Leon
08. Circus Freaks
09. So Alive
10. Small World
11. Death of A Rude Boy
12. Powder Blue (Bonus Track)
13. Black and Blue (Bonus Track)
14. My Girl 2 (Bonus Track)

Exact Audio Copy V1.0 beta 2 from 29. April 2011

EAC extraction logfile from 9. November 2012, 13:50

Madness / Oui Oui Si Si Ja Ja Da Da

Used drive : HL-DT-STDVDRAM GH15F Adapter: 1 ID: 0

Read mode : Secure
Utilize accurate stream : Yes
Defeat audio cache : Yes
Make use of C2 pointers : No

Read offset correction : 667
Overread into Lead-In and Lead-Out : No
Fill up missing offset samples with silence : Yes
Delete leading and trailing silent blocks : No
Null samples used in CRC calculations : Yes
Used interface : Native Win32 interface for Win NT & 2000
Gap handling : Appended to previous track

Used output format : User Defined Encoder
Selected bitrate : 128 kBit/s
Quality : High
Add ID3 tag : No
Command line compressor : C:\Program Files\Exact Audio Copy\Flac\flac.exe
Additional command line options : -8 -V -T "ARTIST=%artist%" -T "TITLE=%title%" -T "ALBUM=%albumtitle%" -T "DATE=%year%" -T "TRACKNUMBER=%tracknr%" -T "GENRE=%genre%" -T "PERFORMER=%albuminterpret%" -T "COMPOSER=%composer%" %haslyrics%–tag-from-file=LYRICS


TOC of the extracted CD

Track | Start | Length | Start sector | End sector
––––––––––––––––––––––––––––-
1 | 0:00.00 | 2:50.65 | 0 | 12814
2 | 2:50.65 | 3:28.14 | 12815 | 28428
3 | 6:19.04 | 3:38.26 | 28429 | 44804
4 | 9:57.30 | 3:18.60 | 44805 | 59714
5 | 13:16.15 | 3:21.15 | 59715 | 74804
6 | 16:37.30 | 3:16.66 | 74805 | 89570
7 | 19:54.21 | 3:48.35 | 89571 | 106705
8 | 23:42.56 | 3:15.13 | 106706 | 121343
9 | 26:57.69 | 2:58.39 | 121344 | 134732
10 | 29:56.33 | 3:46.17 | 134733 | 151699
11 | 33:42.50 | 3:58.04 | 151700 | 169553
12 | 37:40.54 | 3:47.02 | 169554 | 186580
13 | 41:27.56 | 3:01.50 | 186581 | 200205
14 | 44:29.31 | 3:01.08 | 200206 | 213788


Track 1

Filename J:\Madness - Oui Oui Si Si Ja Ja Da Da (flac)\01 My Girl 2.wav

Pre-gap length 0:00:02.00

Peak level 99.9 %
Extraction speed 3.9 X
Track quality 100.0 %
Test CRC 87202FF4
Copy CRC 87202FF4
Track not present in AccurateRip database
Copy OK

Track 2

Filename J:\Madness - Oui Oui Si Si Ja Ja Da Da (flac)\02 Never Knew Your Name.wav

Peak level 99.9 %
Extraction speed 4.5 X
Track quality 100.0 %
Test CRC 889FCAA3
Copy CRC 889FCAA3
Track not present in AccurateRip database
Copy OK

Track 3

Filename J:\Madness - Oui Oui Si Si Ja Ja Da Da (flac)\03 La Luna.wav

Peak level 99.9 %
Extraction speed 4.9 X
Track quality 100.0 %
Test CRC 91BADEDB
Copy CRC 91BADEDB
Track not present in AccurateRip database
Copy OK

Track 4

Filename J:\Madness - Oui Oui Si Si Ja Ja Da Da (flac)\04 How Can I Tell You.wav

Peak level 99.9 %
Extraction speed 5.1 X
Track quality 100.0 %
Test CRC C0D68E3E
Copy CRC C0D68E3E
Track not present in AccurateRip database
Copy OK

Track 5

Filename J:\Madness - Oui Oui Si Si Ja Ja Da Da (flac)\05 Kitchen Floor.wav

Peak level 92.4 %
Extraction speed 4.4 X
Track quality 99.9 %
Test CRC 830752C7
Copy CRC 830752C7
Track not present in AccurateRip database
Copy OK

Track 6

Filename J:\Madness - Oui Oui Si Si Ja Ja Da Da (flac)\06 Misery.wav

Peak level 99.9 %
Extraction speed 4.5 X
Track quality 99.9 %
Test CRC 6B054C43
Copy CRC 6B054C43
Track not present in AccurateRip database
Copy OK

Track 7

Filename J:\Madness - Oui Oui Si Si Ja Ja Da Da (flac)\07 Leon.wav

Peak level 99.9 %
Extraction speed 6.1 X
Track quality 100.0 %
Test CRC A6AACAB1
Copy CRC A6AACAB1
Track not present in AccurateRip database
Copy OK

Track 8

Filename J:\Madness - Oui Oui Si Si Ja Ja Da Da (flac)\08 Circus Freaks.wav

Peak level 85.2 %
Extraction speed 4.9 X
Track quality 99.9 %
Test CRC 8CB2D46E
Copy CRC 8CB2D46E
Track not present in AccurateRip database
Copy OK

Track 9

Filename J:\Madness - Oui Oui Si Si Ja Ja Da Da (flac)\09 So Alive.wav

Peak level 99.9 %
Extraction speed 6.1 X
Track quality 100.0 %
Test CRC 722B5CC5
Copy CRC 722B5CC5
Track not present in AccurateRip database
Copy OK

Track 10

Filename J:\Madness - Oui Oui Si Si Ja Ja Da Da (flac)\10 Small World.wav

Peak level 99.9 %
Extraction speed 6.7 X
Track quality 100.0 %
Test CRC 4FF523E3
Copy CRC 4FF523E3
Track not present in AccurateRip database
Copy OK

Track 11

Filename J:\Madness - Oui Oui Si Si Ja Ja Da Da (flac)\11 Death of a Rude Boy.wav

Peak level 99.7 %
Extraction speed 5.8 X
Track quality 99.9 %
Test CRC FC159901
Copy CRC FC159901
Track not present in AccurateRip database
Copy OK

Track 12

Filename J:\Madness - Oui Oui Si Si Ja Ja Da Da (flac)\12 Powder Blue (Bonus Track).wav

Peak level 99.9 %
Extraction speed 7.0 X
Track quality 100.0 %
Test CRC 4F3D97AA
Copy CRC 4F3D97AA
Track not present in AccurateRip database
Copy OK

Track 13

Filename J:\Madness - Oui Oui Si Si Ja Ja Da Da (flac)\13 Black and Blue (Bonus Track).wav

Peak level 99.9 %
Extraction speed 7.0 X
Track quality 100.0 %
Test CRC 9B427A7E
Copy CRC 9B427A7E
Track not present in AccurateRip database
Copy OK

Track 14

Filename J:\Madness - Oui Oui Si Si Ja Ja Da Da (flac)\14 My Girl 2 Clive Langer and Charlie Andrew Mix (Bonus Track).wav

Peak level 92.4 %
Extraction speed 7.2 X
Track quality 100.0 %
Test CRC 526C2F56
Copy CRC 526C2F56
Track not present in AccurateRip database
Copy OK


None of the tracks are present in the AccurateRip database

No errors occurred

End of status report

–– CUETools DB Plugin V2.1.3

[CTDB TOCID: JzfY_BQIi5obNrXI50Kqjl_Fuxk-] found, Submit result: JzfY_BQIi5obNrXI50Kqjl_Fuxk- has been confirmed
[b2edc9a0] (3/3) Accurately ripped


==== Log checksum 8E6995F0BCA514A383376F6007A290220E04A63F417C10DCB10662883227D980 ====


Madness - Oui Oui Si Si Ja Ja Da Da (2012) {Cooking Vinyl}

Special Thanks to the original uploader!