Tags
Language
Tags
February 2023
Su Mo Tu We Th Fr Sa
29 30 31 1 2 3 4
5 6 7 8 9 10 11
12 13 14 15 16 17 18
19 20 21 22 23 24 25
26 27 28 1 2 3 4

Man - All's Well That Ends Well (1976) {Remastered & Expanded 3CD Edition Esoteric Recordings ECLEC 32431 rel 2014}

Posted By: ruskaval
Man - All's Well That Ends Well (1976) {Remastered & Expanded 3CD Edition Esoteric Recordings ECLEC 32431 rel 2014}

Man - All's Well That Ends Well (1976) {Remastered & Expanded 3CD Edition Esoteric Recordings ECLEC 32431 rel 2014}
EAC rip (secure mode) | FLAC (tracks)+CUE+LOG -> 870 Mb | MP3 @320 -> 311 Mb
Artwork @ 300 dpi (jpg) -> 21 Mb | 5% repair rar
© 1976, 2014 Esoteric Recordings / Cherry Red Records | ECLEC 32431
Rock / Prog-Rock / Psychedelic / Pub Rock / Hard Rock

In 2014 Esoteric Records released a completely remastered issue of All's Well That Ends Well. It is the original album release remastered from the original 24-track tapes and select recordings of the shows from the 10 and 11 December 1976 of the three night stint at the Roundhouse. The recordings are a mix of the in-house recordings done by the Roundhouse sound team and the Manor Mobile recordings who also did the gig. This was the last line up until the band reformed in 1984, and captures most of the consistent members who played in Man, other than Micky Jones who never left it.
• NEW REMIXED AND REMASTERED 3 DISC SET OF MAN’S FAMOUS FAREWELL CONCERTS AT THE ROUNDHOUSE, LONDON IN DECEMBER 1976
• CLAMSHELL 3 CD BOXED SET INCLUDES A NEW REMASTERED VERSION OF THE ORIGINAL ALBUM (REMASTERED FROM THE ORIGINAL TAPES), ALONG WITH A NEW MIX FROM THE ORIGINAL 24-TRACK TAPES OF MAN’S ENTIRE SET RECORDED ON THE 10th & 11th DECEMBER 1976 FEATURING PREVIOUSLY UNRELEASED RECORDINGS

Esoteric Recordings are pleased to announce the expanded release of Man’s classic 1977 live album “All’s Well That End’s Well”. Following the release of the album “The Welsh Connection” in 1976, featuring a new line-up of the band featuring Micky Jones (Guitar / Vocals), Deke Leonard (Guitar, Vocals), Phil Ryan (Keyboards / Vocals), John McKenzie (Bass) and Terry Williams (Drums), Man embarked upon their last UK tour of the 1970s, the highlight of which was a series of shows at London’s Roundhouse. The highlights of these concerts were released as the album “All’s Well That Ends Well” in 1977.

To celebrate those wonderful performances, this Esoteric Recordings deluxe clamshell edition has been expanded across three CDs to include a newly remastered edition of the original album (from the original master tapes) and a brand new mix of Man’s entire live set recorded on the 10th & 11th December 1976 (made from the original 24-track master tapes).

Man is:

Micky Jones – vocals & guitar
Deke Leonard – vocals & guitar
Phil Ryan – vocals & keyboards
John McKenzie – vocals & bass
Terry Williams – vocals & drums

Track Listing

DISC ONE

“ALL’S WELL THAT ENDS WELL” – THE ORIGINAL ALBUM REMASTERED


1. LET THE GOOD TIMES ROLL
2. THE WELSH CONNECTION
3. THE RIDE AND THE VIEW
4. HARD WAY TO LIVE
5. BORN WITH A FUTURE
6. SPUNK ROCK
7. ROMAIN

Man - All's Well That Ends Well (1976) {Remastered & Expanded 3CD Edition Esoteric Recordings ECLEC 32431 rel 2014}

Man - All's Well That Ends Well (1976) {Remastered & Expanded 3CD Edition Esoteric Recordings ECLEC 32431 rel 2014}


DISC TWO

MAN AT THE ROUNDHOUSE (DECEMBER 1976 – PART ONE – NEWLY REMIXED & PREVIOUSLY UNRELEASED)


1. LET THE GOOD TIMES ROLL
2. 7171 551
3. THE WELSH CONNECTION
4. BABE, I’M GONNA LEAVE YOU
5. THE RIDE AND THE VIEW
6. C’MON

Man - All's Well That Ends Well (1976) {Remastered & Expanded 3CD Edition Esoteric Recordings ECLEC 32431 rel 2014}

Man - All's Well That Ends Well (1976) {Remastered & Expanded 3CD Edition Esoteric Recordings ECLEC 32431 rel 2014}


DISC THREE

MAN AT THE ROUNDHOUSE (DECEMBER 1976 – PART TWO – NEWLY REMIXED & PREVIOUSLY UNRELEASED)


1. BORN WITH A FUTURE
2. MANY ARE CALLED, BUT FEW GET UP
3. A HARD WAY TO LIVE
4. BANANAS
5. SPUNK ROCK
6. ROMAIN

Man - All's Well That Ends Well (1976) {Remastered & Expanded 3CD Edition Esoteric Recordings ECLEC 32431 rel 2014}

Man - All's Well That Ends Well (1976) {Remastered & Expanded 3CD Edition Esoteric Recordings ECLEC 32431 rel 2014}


Exact Audio Copy V1.0 beta 3 from 29. August 2011

EAC extraction logfile from 29. May 2014, 16:22

Man / All's Well That Ends Well (Disc 1)

Used drive : TSSTcorpCDDVDW SE-S084F Adapter: 1 ID: 0

Read mode : Secure
Utilize accurate stream : Yes
Defeat audio cache : Yes
Make use of C2 pointers : No

Read offset correction : 6
Overread into Lead-In and Lead-Out : No
Fill up missing offset samples with silence : Yes
Delete leading and trailing silent blocks : No
Null samples used in CRC calculations : Yes
Used interface : Native Win32 interface for Win NT & 2000
Gap handling : Appended to previous track

Used output format : User Defined Encoder
Selected bitrate : 1024 kBit/s
Quality : High
Add ID3 tag : No
Command line compressor : C:\Program Files (x86)\Exact Audio Copy\Flac\flac.exe
Additional command line options : -8 -V -T "ARTIST=%artist%" -T "TITLE=%title%" -T "ALBUM=%albumtitle%" -T "DATE=%year%" -T "TRACKNUMBER=%tracknr%" -T "GENRE=%genre%" -T "PERFORMER=%albuminterpret%" -T "COMPOSER=%composer%" %haslyrics%–tag-from-file=LYRICS="%lyricsfile%"%haslyrics% -T "ALBUMARTIST=%albumartist%" -T "DISCNUMBER=%cdnumber%" -T "TOTALDISCS=%totalcds%" -T "TOTALTRACKS=%numtracks%" -T "COMMENT=%comment%" %source% -o %dest%


TOC of the extracted CD

Track | Start | Length | Start sector | End sector
––––––––––––––––––––––––––––-
1 | 0:00.00 | 3:03.10 | 0 | 13734
2 | 3:03.10 | 8:01.27 | 13735 | 49836
3 | 11:04.37 | 6:04.05 | 49837 | 77141
4 | 17:08.42 | 3:08.24 | 77142 | 91265
5 | 20:16.66 | 7:44.49 | 91266 | 126114
6 | 28:01.40 | 8:36.48 | 126115 | 164862
7 | 36:38.13 | 5:03.35 | 164863 | 187622


Track 1

Filename C:\Users\ian\Desktop\Man - All's Well That Ends Well (1976) [FLAC] {3CD}\All's Well That Ends Well CD1\01 - Let The Good Times Roll.wav

Pre-gap length 0:00:02.00

Peak level 99.4 %
Extraction speed 2.4 X
Track quality 100.0 %
Test CRC 72D49480
Copy CRC 72D49480
Accurately ripped (confidence 1) [C682FDEA] (AR v2)
Copy OK

Track 2

Filename C:\Users\ian\Desktop\Man - All's Well That Ends Well (1976) [FLAC] {3CD}\All's Well That Ends Well CD1\02 - The Welsh Connection.wav

Peak level 99.4 %
Extraction speed 2.8 X
Track quality 99.9 %
Test CRC A659770B
Copy CRC A659770B
Accurately ripped (confidence 1) [904367F3] (AR v2)
Copy OK

Track 3

Filename C:\Users\ian\Desktop\Man - All's Well That Ends Well (1976) [FLAC] {3CD}\All's Well That Ends Well CD1\03 - The Ride And The View.wav

Peak level 99.4 %
Extraction speed 3.4 X
Track quality 100.0 %
Test CRC D6F1825C
Copy CRC D6F1825C
Accurately ripped (confidence 1) [3344A13F] (AR v2)
Copy OK

Track 4

Filename C:\Users\ian\Desktop\Man - All's Well That Ends Well (1976) [FLAC] {3CD}\All's Well That Ends Well CD1\04 - Hard Way To Live.wav

Peak level 99.4 %
Extraction speed 3.3 X
Track quality 100.0 %
Test CRC F685A65B
Copy CRC F685A65B
Accurately ripped (confidence 1) [2AD3E37D] (AR v2)
Copy OK

Track 5

Filename C:\Users\ian\Desktop\Man - All's Well That Ends Well (1976) [FLAC] {3CD}\All's Well That Ends Well CD1\05 - Born With A Future.wav

Pre-gap length 0:00:02.62

Peak level 99.4 %
Extraction speed 4.0 X
Track quality 100.0 %
Test CRC 8D09CAD7
Copy CRC 8D09CAD7
Accurately ripped (confidence 1) [FE2235AB] (AR v2)
Copy OK

Track 6

Filename C:\Users\ian\Desktop\Man - All's Well That Ends Well (1976) [FLAC] {3CD}\All's Well That Ends Well CD1\06 - Spunk Rock.wav

Peak level 99.4 %
Extraction speed 4.4 X
Track quality 100.0 %
Test CRC C44AFCB6
Copy CRC C44AFCB6
Accurately ripped (confidence 1) [8BFBF653] (AR v2)
Copy OK

Track 7

Filename C:\Users\ian\Desktop\Man - All's Well That Ends Well (1976) [FLAC] {3CD}\All's Well That Ends Well CD1\07 - Romain.wav

Peak level 99.4 %
Extraction speed 3.8 X
Track quality 99.9 %
Test CRC 3DAF2F3E
Copy CRC 3DAF2F3E
Accurately ripped (confidence 1) [59491018] (AR v2)
Copy OK


All tracks accurately ripped

No errors occurred

End of status report

–– CUETools DB Plugin V2.1.3

[CTDB TOCID: 9D0q2mfAZe9hEo4iW2hqYnJ6gTE-] found, Submit result: 9D0q2mfAZe9hEo4iW2hqYnJ6gTE- has been confirmed
[cf1c9534] (1/1) Accurately ripped


==== Log checksum 9424525AF4CEEDDBAD666A55E98E32F9C688EF014323BB063E9BB30A64DE4999 ====





Exact Audio Copy V1.0 beta 3 from 29. August 2011

EAC extraction logfile from 30. May 2014, 13:05

Man / All's Well That Ends Well (Disc 2)

Used drive : TSSTcorpCDDVDW SE-S084F Adapter: 1 ID: 0

Read mode : Secure
Utilize accurate stream : Yes
Defeat audio cache : Yes
Make use of C2 pointers : No

Read offset correction : 6
Overread into Lead-In and Lead-Out : No
Fill up missing offset samples with silence : Yes
Delete leading and trailing silent blocks : No
Null samples used in CRC calculations : Yes
Used interface : Native Win32 interface for Win NT & 2000
Gap handling : Appended to previous track

Used output format : User Defined Encoder
Selected bitrate : 1024 kBit/s
Quality : High
Add ID3 tag : No
Command line compressor : C:\Program Files (x86)\Exact Audio Copy\Flac\flac.exe
Additional command line options : -8 -V -T "ARTIST=%artist%" -T "TITLE=%title%" -T "ALBUM=%albumtitle%" -T "DATE=%year%" -T "TRACKNUMBER=%tracknr%" -T "GENRE=%genre%" -T "PERFORMER=%albuminterpret%" -T "COMPOSER=%composer%" %haslyrics%–tag-from-file=LYRICS="%lyricsfile%"%haslyrics% -T "ALBUMARTIST=%albumartist%" -T "DISCNUMBER=%cdnumber%" -T "TOTALDISCS=%totalcds%" -T "TOTALTRACKS=%numtracks%" -T "COMMENT=%comment%" %source% -o %dest%


TOC of the extracted CD

Track | Start | Length | Start sector | End sector
––––––––––––––––––––––––––––-
1 | 0:00.00 | 2:47.37 | 0 | 12561
2 | 2:47.37 | 5:18.17 | 12562 | 36428
3 | 8:05.54 | 8:14.04 | 36429 | 73482
4 | 16:19.58 | 5:02.27 | 73483 | 96159
5 | 21:22.10 | 6:15.56 | 96160 | 124340
6 | 27:37.66 | 16:24.49 | 124341 | 198189


Track 1

Filename C:\Users\ian\Desktop\Man - All's Well That Ends Well (1976) [FLAC] {3CD}\All's Well That Ends Well CD2\01 - Let The Good Times Roll.wav

Pre-gap length 0:00:02.00

Peak level 95.1 %
Extraction speed 2.3 X
Track quality 100.0 %
Test CRC D0B84E89
Copy CRC D0B84E89
Accurately ripped (confidence 1) [E69C09AC] (AR v2)
Copy OK

Track 2

Filename C:\Users\ian\Desktop\Man - All's Well That Ends Well (1976) [FLAC] {3CD}\All's Well That Ends Well CD2\02 - 7171 551.wav

Peak level 95.1 %
Extraction speed 2.9 X
Track quality 100.0 %
Test CRC 7C5B9C2E
Copy CRC 7C5B9C2E
Accurately ripped (confidence 1) [7487C1D1] (AR v2)
Copy OK

Track 3

Filename C:\Users\ian\Desktop\Man - All's Well That Ends Well (1976) [FLAC] {3CD}\All's Well That Ends Well CD2\03 - The Welsh Connection.wav

Peak level 95.1 %
Extraction speed 3.4 X
Track quality 100.0 %
Test CRC B84955C3
Copy CRC B84955C3
Accurately ripped (confidence 1) [A0BAB739] (AR v2)
Copy OK

Track 4

Filename C:\Users\ian\Desktop\Man - All's Well That Ends Well (1976) [FLAC] {3CD}\All's Well That Ends Well CD2\04 - Babe, I'm Gonna Leave You.wav

Peak level 95.1 %
Extraction speed 3.6 X
Track quality 100.0 %
Test CRC 6776A8BD
Copy CRC 6776A8BD
Accurately ripped (confidence 1) [C63EF14F] (AR v2)
Copy OK

Track 5

Filename C:\Users\ian\Desktop\Man - All's Well That Ends Well (1976) [FLAC] {3CD}\All's Well That Ends Well CD2\05 - The Ride And The View.wav

Peak level 95.1 %
Extraction speed 3.9 X
Track quality 100.0 %
Test CRC 3543FD78
Copy CRC 3543FD78
Accurately ripped (confidence 1) [635A913F] (AR v2)
Copy OK

Track 6

Filename C:\Users\ian\Desktop\Man - All's Well That Ends Well (1976) [FLAC] {3CD}\All's Well That Ends Well CD2\06 - C'Mon.wav

Peak level 95.1 %
Extraction speed 4.7 X
Track quality 100.0 %
Test CRC DC6B8E48
Copy CRC DC6B8E48
Accurately ripped (confidence 1) [2D34E1CB] (AR v2)
Copy OK


All tracks accurately ripped

No errors occurred

End of status report

–– CUETools DB Plugin V2.1.3

[CTDB TOCID: BO9m3dvSeJ.sIMByAKol2kJTSmw-] found, Submit result: BO9m3dvSeJ.sIMByAKol2kJTSmw- has been confirmed
[cc7524dc] (1/1) Accurately ripped


==== Log checksum CC86F28718837FBFC0AF1877ADFF3C9CEE232C6839D70FBC77E6DAC5E0317E86 ====





Exact Audio Copy V1.0 beta 3 from 29. August 2011

EAC extraction logfile from 30. May 2014, 15:31

Man / All's Well That Ends Well (Disc 3)

Used drive : TSSTcorpCDDVDW SE-S084F Adapter: 1 ID: 0

Read mode : Secure
Utilize accurate stream : Yes
Defeat audio cache : Yes
Make use of C2 pointers : No

Read offset correction : 6
Overread into Lead-In and Lead-Out : No
Fill up missing offset samples with silence : Yes
Delete leading and trailing silent blocks : No
Null samples used in CRC calculations : Yes
Used interface : Native Win32 interface for Win NT & 2000
Gap handling : Appended to previous track

Used output format : User Defined Encoder
Selected bitrate : 1024 kBit/s
Quality : High
Add ID3 tag : No
Command line compressor : C:\Program Files (x86)\Exact Audio Copy\Flac\flac.exe
Additional command line options : -8 -V -T "ARTIST=%artist%" -T "TITLE=%title%" -T "ALBUM=%albumtitle%" -T "DATE=%year%" -T "TRACKNUMBER=%tracknr%" -T "GENRE=%genre%" -T "PERFORMER=%albuminterpret%" -T "COMPOSER=%composer%" %haslyrics%–tag-from-file=LYRICS="%lyricsfile%"%haslyrics% -T "ALBUMARTIST=%albumartist%" -T "DISCNUMBER=%cdnumber%" -T "TOTALDISCS=%totalcds%" -T "TOTALTRACKS=%numtracks%" -T "COMMENT=%comment%" %source% -o %dest%


TOC of the extracted CD

Track | Start | Length | Start sector | End sector
––––––––––––––––––––––––––––-
1 | 0:00.03 | 7:25.27 | 3 | 33404
2 | 7:25.30 | 10:31.62 | 33405 | 80791
3 | 17:57.17 | 3:29.00 | 80792 | 96466
4 | 21:26.17 | 11:54.63 | 96467 | 150079
5 | 33:21.05 | 7:40.73 | 150080 | 184652
6 | 41:02.03 | 5:16.43 | 184653 | 208395


Track 1

Filename C:\Users\ian\Desktop\Man - All's Well That Ends Well (1976) [FLAC] {3CD}\All's Well That Ends Well CD3\01 - Born With A Future.wav

Pre-gap length 0:00:02.04

Peak level 99.4 %
Extraction speed 2.8 X
Track quality 100.0 %
Test CRC ADAE02ED
Copy CRC ADAE02ED
Accurately ripped (confidence 1) [3E537919] (AR v2)
Copy OK

Track 2

Filename C:\Users\ian\Desktop\Man - All's Well That Ends Well (1976) [FLAC] {3CD}\All's Well That Ends Well CD3\02 - Many Are Called, But Few Get Up.wav

Peak level 99.4 %
Extraction speed 3.5 X
Track quality 100.0 %
Test CRC 8CD75067
Copy CRC 8CD75067
Accurately ripped (confidence 1) [17980CF4] (AR v2)
Copy OK

Track 3

Filename C:\Users\ian\Desktop\Man - All's Well That Ends Well (1976) [FLAC] {3CD}\All's Well That Ends Well CD3\03 - A Hard Way To Live.wav

Peak level 99.4 %
Extraction speed 3.5 X
Track quality 100.0 %
Test CRC 62DBA2E0
Copy CRC 62DBA2E0
Accurately ripped (confidence 1) [6953B9B1] (AR v2)
Copy OK

Track 4

Filename C:\Users\ian\Desktop\Man - All's Well That Ends Well (1976) [FLAC] {3CD}\All's Well That Ends Well CD3\04 - Bananas.wav

Peak level 99.4 %
Extraction speed 4.3 X
Track quality 100.0 %
Test CRC 80596961
Copy CRC 80596961
Accurately ripped (confidence 1) [4AB18128] (AR v2)
Copy OK

Track 5

Filename C:\Users\ian\Desktop\Man - All's Well That Ends Well (1976) [FLAC] {3CD}\All's Well That Ends Well CD3\05 - Spunk Rock.wav

Peak level 99.4 %
Extraction speed 4.6 X
Track quality 100.0 %
Test CRC F0656186
Copy CRC F0656186
Accurately ripped (confidence 1) [BA5C5A15] (AR v2)
Copy OK

Track 6

Filename C:\Users\ian\Desktop\Man - All's Well That Ends Well (1976) [FLAC] {3CD}\All's Well That Ends Well CD3\06 - Romain.wav

Peak level 99.4 %
Extraction speed 4.7 X
Track quality 100.0 %
Test CRC 3794F97F
Copy CRC 3794F97F
Accurately ripped (confidence 1) [32D542D0] (AR v2)
Copy OK


All tracks accurately ripped

No errors occurred

End of status report

==== Log checksum 5D648B1647355F7C0FFC4878B2454F31A1561890FE050815048A02B387D064F4 ====


Man - All's Well That Ends Well (1976) {Remastered & Expanded 3CD Edition Esoteric Recordings ECLEC 32431 rel 2014}


see also:
Man - The Twang Dynasty (2014)...t Edition ECLEC32455 rec 1992}



===