Tags
Language
Tags

Marc Mauillon & Anne Le Bozec - Fauré et ses poètes (2020)

Posted By: delpotro
Marc Mauillon & Anne Le Bozec - Fauré et ses poètes (2020)

Marc Mauillon & Anne Le Bozec - Fauré et ses poètes (2020)
EAC Rip | FLAC (tracks+log+.cue) - 284 Mb | MP3 CBR 320 kbps - 177 Mb | Digital booklet | 01:14:09
Classical, Vocal | Label: harmonia mundi

The poetic renewal embodied by Hugo, Baudelaire, Verlaine and so many others after them radically changed the musical landscape and propelled French art song into a true golden age. This tribute to Fauré, the supreme master of the mélodie, gains its radiance from Marc Mauillon’s ideally clear voice and Anne Le Bozec’s delicate pianism. The singer’s second ‘solo’ recording on harmonia mundi shows him just as much at home in Faurean word setting as in the text of Lambert’s Leçons de Ténèbres.
Tracklist:
1. 2 Songs, Op. 1: No. 1. Le Papillon et la Fleur (02:03)
2. 3 Songs, Op. 5: No. 2. Rêve d'amour (02:14)
3. 3 Songs, Op. 5: No. 1. Chant d'automne (04:02)
4. 2 Songs, Op. 4: No. 1. La Chanson du pêcheur (03:06)
5. 3 Songs, Op. 6: No. 2. Tristesse (02:21)
6. 3 Songs, Op. 6: No. 1. Aubade (01:42)
7. 3 songs, Op. 7: No. 3. Barcarolle (01:44)
8. 3 Songs, Op. 8: No. 1. Au bord de l'eau (01:55)
9. 3 songs, Op. 7: No. 1. Après un rêve (02:34)
10. 2 Songs, Op. 2: No. 2. Sérénade toscane (02:43)
11. 3 Songs, Op. 6: No. 3. Sylvie (02:23)
12. 3 Songs, Op. 23: No. 1. Les Berceaux (02:23)
13. 3 Songs, Op. 23: No. 2. Notre amour (01:44)
14. 3 Songs, Op. 23: No. 3. Le Secret (02:27)
15. 4 Songs, Op. 39: No. 1. Aurore (02:03)
16. 4 Songs, Op. 39: No. 4. Les Roses d'Ispahan (02:49)
17. 2 Songs, Op. 43: No. 2. Nocturne (02:35)
18. 2 Songs, Op. 46: No. 1. Les Présents (01:39)
19. 2 Songs, Op. 46: No. 2. Clair de lune (02:44)
20. 4 Songs, Op. 51: No. 1. Larmes (02:19)
21. 4 Songs, Op. 51: No. 2. Au cimetière (03:54)
22. 4 Songs, Op. 51: No. 4. La Rose (02:24)
23. 5 Mélodies 'de Venise', Op. 58: No. 1. Mandoline (01:47)
24. 5 Mélodies 'de Venise', Op. 58: No. 2. En sourdine (03:00)
25. Sérénade du Bourgeois gentilhomme (01:20)
26. 2 Songs, Op. 83: No. 2. Soir (02:03)
27. 3 Songs, Op. 85: No. 3. Accompagnement (03:17)
28. 3 Songs, Op. 85: No. 2. La Fleur qui va sur l'eau (02:08)
29. 3 Songs, Op. 85: No. 1. Dans la forêt de septembre (02:56)
30. Le Don silencieux, Op. 92 (02:03)
31. Chanson, Op. 94 (01:30)

Exact Audio Copy V1.3 from 2. September 2016

EAC extraction logfile from 12. January 2020, 14:45

Marc Mauillon, Anne Le Bozec / Fauré et ses poètes

Used drive : MATSHITADVD-RAM UJ892 Adapter: 1 ID: 0

Read mode : Secure
Utilize accurate stream : Yes
Defeat audio cache : Yes
Make use of C2 pointers : No

Read offset correction : 102
Overread into Lead-In and Lead-Out : No
Fill up missing offset samples with silence : Yes
Delete leading and trailing silent blocks : No
Null samples used in CRC calculations : Yes
Used interface : Native Win32 interface for Win NT & 2000
Gap handling : Appended to previous track

Used output format : User Defined Encoder
Selected bitrate : 1024 kBit/s
Quality : High
Add ID3 tag : No
Command line compressor : C:\flac_eac.exe
Additional command line options : -8 -V -T "ARTIST=%artist%" -T "TITLE=%title%" -T "ALBUM=%albumtitle%" -T "DATE=%year%" -T "TRACKNUMBER=%tracknr%" -T "GENRE=%genre%" -T "PERFORMER=%albuminterpret%" -T "COMPOSER=%composer%" %haslyrics%–tag-from-file=LYRICS="%lyricsfile%"%haslyrics% -T "ALBUMARTIST=%albumartist%" -T "DISCNUMBER=%cdnumber%" -T "TOTALDISCS=%totalcds%" -T "TOTALTRACKS=%numtracks%" -T "COMMENT=%comment%" %original%


TOC of the extracted CD

Track | Start | Length | Start sector | End sector
––––––––––––––––––––––––––––-
1 | 0:00.00 | 2:03.71 | 0 | 9295
2 | 2:03.71 | 2:14.53 | 9296 | 19398
3 | 4:18.49 | 4:02.73 | 19399 | 37621
4 | 8:21.47 | 3:06.39 | 37622 | 51610
5 | 11:28.11 | 2:21.03 | 51611 | 62188
6 | 13:49.14 | 1:42.26 | 62189 | 69864
7 | 15:31.40 | 1:44.61 | 69865 | 77725
8 | 17:16.26 | 1:55.31 | 77726 | 86381
9 | 19:11.57 | 2:34.22 | 86382 | 97953
10 | 21:46.04 | 2:43.35 | 97954 | 110213
11 | 24:29.39 | 2:23.73 | 110214 | 121011
12 | 26:53.37 | 2:23.34 | 121012 | 131770
13 | 29:16.71 | 1:44.61 | 131771 | 139631
14 | 31:01.57 | 2:27.45 | 139632 | 150701
15 | 33:29.27 | 2:03.25 | 150702 | 159951
16 | 35:32.52 | 2:49.57 | 159952 | 172683
17 | 38:22.34 | 2:35.43 | 172684 | 184351
18 | 40:58.02 | 1:39.45 | 184352 | 191821
19 | 42:37.47 | 2:44.09 | 191822 | 204130
20 | 45:21.56 | 2:19.42 | 204131 | 214597
21 | 47:41.23 | 3:54.50 | 214598 | 232197
22 | 51:35.73 | 2:24.67 | 232198 | 243064
23 | 54:00.65 | 1:47.60 | 243065 | 251149
24 | 55:48.50 | 3:00.34 | 251150 | 264683
25 | 58:49.09 | 1:20.69 | 264684 | 270752
26 | 60:10.03 | 2:03.07 | 270753 | 279984
27 | 62:13.10 | 3:17.11 | 279985 | 294770
28 | 65:30.21 | 2:08.66 | 294771 | 304436
29 | 67:39.12 | 2:56.29 | 304437 | 317665
30 | 70:35.41 | 2:03.59 | 317666 | 326949
31 | 72:39.25 | 1:30.06 | 326950 | 333705


Track 1

Filename L:\musique\rip\Fauré et ses poètes (Marc Mauillon, Anne Le Bozec) (2020) [FLAC] {902636}\01 - Le Papillon et la Fleur (Victor Hugo), op. 1 n°1.wav

Pre-gap length 0:00:02.00

Peak level 70.6 %
Extraction speed 1.3 X
Track quality 100.0 %
Test CRC 1D937EE4
Copy CRC 1D937EE4
Track not present in AccurateRip database
Copy OK

Track 2

Filename L:\musique\rip\Fauré et ses poètes (Marc Mauillon, Anne Le Bozec) (2020) [FLAC] {902636}\02 - Rêve d'amour (Victor Hugo), op. 5 n°2.wav

Peak level 54.6 %
Extraction speed 1.4 X
Track quality 100.0 %
Test CRC BDE2D9BF
Copy CRC BDE2D9BF
Track not present in AccurateRip database
Copy OK

Track 3

Filename L:\musique\rip\Fauré et ses poètes (Marc Mauillon, Anne Le Bozec) (2020) [FLAC] {902636}\03 - Chant d'automne (Charles Baudelaire), op. 5 n°1.wav

Peak level 68.9 %
Extraction speed 1.6 X
Track quality 100.0 %
Test CRC D9699B47
Copy CRC D9699B47
Track not present in AccurateRip database
Copy OK

Track 4

Filename L:\musique\rip\Fauré et ses poètes (Marc Mauillon, Anne Le Bozec) (2020) [FLAC] {902636}\04 - La Chanson du pêcheur (Théophile Gautier), op. 4 n°1.wav

Peak level 57.4 %
Extraction speed 1.7 X
Track quality 100.0 %
Test CRC 0A5792F6
Copy CRC 0A5792F6
Track not present in AccurateRip database
Copy OK

Track 5

Filename L:\musique\rip\Fauré et ses poètes (Marc Mauillon, Anne Le Bozec) (2020) [FLAC] {902636}\05 - Tristesse (Théophile Gautier), op. 6 n°2.wav

Peak level 72.0 %
Extraction speed 1.7 X
Track quality 100.0 %
Test CRC F835B3B6
Copy CRC F835B3B6
Track not present in AccurateRip database
Copy OK

Track 6

Filename L:\musique\rip\Fauré et ses poètes (Marc Mauillon, Anne Le Bozec) (2020) [FLAC] {902636}\06 - Aubade (Louis Pomey), op. 6 n°1.wav

Peak level 46.0 %
Extraction speed 1.6 X
Track quality 100.0 %
Test CRC 41F8F4EB
Copy CRC 41F8F4EB
Track not present in AccurateRip database
Copy OK

Track 7

Filename L:\musique\rip\Fauré et ses poètes (Marc Mauillon, Anne Le Bozec) (2020) [FLAC] {902636}\07 - Barcarolle (Marc Monnier), op. 7 n°3.wav

Peak level 51.3 %
Extraction speed 1.7 X
Track quality 100.0 %
Test CRC D2D83E27
Copy CRC D2D83E27
Track not present in AccurateRip database
Copy OK

Track 8

Filename L:\musique\rip\Fauré et ses poètes (Marc Mauillon, Anne Le Bozec) (2020) [FLAC] {902636}\08 - Au bord de l'eau (Sully Prudhomme), op. 8 n°1.wav

Peak level 48.1 %
Extraction speed 1.7 X
Track quality 100.0 %
Test CRC 7F974A41
Copy CRC 7F974A41
Track not present in AccurateRip database
Copy OK

Track 9

Filename L:\musique\rip\Fauré et ses poètes (Marc Mauillon, Anne Le Bozec) (2020) [FLAC] {902636}\09 - Après un rêve (Romain Bussine), op. 7 n°1.wav

Peak level 97.6 %
Extraction speed 1.9 X
Track quality 100.0 %
Test CRC 40A04487
Copy CRC 40A04487
Track not present in AccurateRip database
Copy OK

Track 10

Filename L:\musique\rip\Fauré et ses poètes (Marc Mauillon, Anne Le Bozec) (2020) [FLAC] {902636}\10 - Sérénade toscane (Romain Bussine), op. 3 n°2.wav

Peak level 54.1 %
Extraction speed 2.0 X
Track quality 100.0 %
Test CRC AD6057B7
Copy CRC AD6057B7
Track not present in AccurateRip database
Copy OK

Track 11

Filename L:\musique\rip\Fauré et ses poètes (Marc Mauillon, Anne Le Bozec) (2020) [FLAC] {902636}\11 - Sylvie (Paul de Choudens), op.6 n°3.wav

Peak level 60.7 %
Extraction speed 2.0 X
Track quality 100.0 %
Test CRC F199FA6E
Copy CRC F199FA6E
Track not present in AccurateRip database
Copy OK

Track 12

Filename L:\musique\rip\Fauré et ses poètes (Marc Mauillon, Anne Le Bozec) (2020) [FLAC] {902636}\12 - Les Berceaux (Sully Prudhomme), op. 23 n°1.wav

Peak level 86.3 %
Extraction speed 2.1 X
Track quality 100.0 %
Test CRC 1188F2F5
Copy CRC 1188F2F5
Track not present in AccurateRip database
Copy OK

Track 13

Filename L:\musique\rip\Fauré et ses poètes (Marc Mauillon, Anne Le Bozec) (2020) [FLAC] {902636}\13 - Notre Amour (Armand Silvestre), op. 23 n°2.wav

Peak level 97.7 %
Extraction speed 1.9 X
Track quality 100.0 %
Test CRC FE4F28FE
Copy CRC FE4F28FE
Track not present in AccurateRip database
Copy OK

Track 14

Filename L:\musique\rip\Fauré et ses poètes (Marc Mauillon, Anne Le Bozec) (2020) [FLAC] {902636}\14 - Le Secret (Armand Silvestre), op. 23 n°3.wav

Peak level 48.5 %
Extraction speed 2.1 X
Track quality 100.0 %
Test CRC B5A60E76
Copy CRC B5A60E76
Track not present in AccurateRip database
Copy OK

Track 15

Filename L:\musique\rip\Fauré et ses poètes (Marc Mauillon, Anne Le Bozec) (2020) [FLAC] {902636}\15 - Aurore (Armand Silvestre), op. 39 n°1.wav

Peak level 51.2 %
Extraction speed 2.1 X
Track quality 100.0 %
Test CRC 61A116E5
Copy CRC 61A116E5
Track not present in AccurateRip database
Copy OK

Track 16

Filename L:\musique\rip\Fauré et ses poètes (Marc Mauillon, Anne Le Bozec) (2020) [FLAC] {902636}\16 - Les Roses d'Ispahan (Charles-Marie Leconte de Lisle), op. 39 n°4.wav

Peak level 69.3 %
Extraction speed 2.3 X
Track quality 100.0 %
Test CRC BBFC5078
Copy CRC BBFC5078
Track not present in AccurateRip database
Copy OK

Track 17

Filename L:\musique\rip\Fauré et ses poètes (Marc Mauillon, Anne Le Bozec) (2020) [FLAC] {902636}\17 - Nocturne (Auguste de Villiers de l'Isle-Adam), op. 43 n°2.wav

Peak level 41.3 %
Extraction speed 2.3 X
Track quality 100.0 %
Test CRC C181281B
Copy CRC C181281B
Track not present in AccurateRip database
Copy OK

Track 18

Filename L:\musique\rip\Fauré et ses poètes (Marc Mauillon, Anne Le Bozec) (2020) [FLAC] {902636}\18 - Les Présents (Auguste de Villiers de l'Isle-Adam), op. 46 n°1.wav

Peak level 64.2 %
Extraction speed 1.7 X
Track quality 99.8 %
Test CRC 3205ECCA
Copy CRC 3205ECCA
Track not present in AccurateRip database
Copy OK

Track 19

Filename L:\musique\rip\Fauré et ses poètes (Marc Mauillon, Anne Le Bozec) (2020) [FLAC] {902636}\19 - Clair de Lune (Paul Verlaine), op. 46 n°2.wav

Peak level 53.8 %
Extraction speed 2.4 X
Track quality 100.0 %
Test CRC D44F2DE2
Copy CRC D44F2DE2
Track not present in AccurateRip database
Copy OK

Track 20

Filename L:\musique\rip\Fauré et ses poètes (Marc Mauillon, Anne Le Bozec) (2020) [FLAC] {902636}\20 - Larmes (Jean Richepin), op. 51 n°1.wav

Peak level 96.9 %
Extraction speed 2.4 X
Track quality 100.0 %
Test CRC 6963B17B
Copy CRC 6963B17B
Track not present in AccurateRip database
Copy OK

Track 21

Filename L:\musique\rip\Fauré et ses poètes (Marc Mauillon, Anne Le Bozec) (2020) [FLAC] {902636}\21 - Au cimetière (Jean Richepin), op. 51 n°2.wav

Peak level 94.3 %
Extraction speed 2.7 X
Track quality 100.0 %
Test CRC 410553C2
Copy CRC 410553C2
Track not present in AccurateRip database
Copy OK

Track 22

Filename L:\musique\rip\Fauré et ses poètes (Marc Mauillon, Anne Le Bozec) (2020) [FLAC] {902636}\22 - La Rose (Charles-Marie Leconte de Lisle), op. 51 n°4.wav

Peak level 72.0 %
Extraction speed 2.5 X
Track quality 100.0 %
Test CRC 400C2EB2
Copy CRC 400C2EB2
Track not present in AccurateRip database
Copy OK

Track 23

Filename L:\musique\rip\Fauré et ses poètes (Marc Mauillon, Anne Le Bozec) (2020) [FLAC] {902636}\23 - Mandoline (Paul Verlaine), op. 58 n°1.wav

Peak level 46.7 %
Extraction speed 2.4 X
Track quality 100.0 %
Test CRC DF278439
Copy CRC DF278439
Track not present in AccurateRip database
Copy OK

Track 24

Filename L:\musique\rip\Fauré et ses poètes (Marc Mauillon, Anne Le Bozec) (2020) [FLAC] {902636}\24 - En sourdine (Paul Verlaine), op. 58 n°2.wav

Peak level 48.0 %
Extraction speed 2.7 X
Track quality 100.0 %
Test CRC DD4404C9
Copy CRC DD4404C9
Track not present in AccurateRip database
Copy OK

Track 25

Filename L:\musique\rip\Fauré et ses poètes (Marc Mauillon, Anne Le Bozec) (2020) [FLAC] {902636}\25 - Sérénade du Bourgeois gentilhomme (Molière), op. posth..wav

Peak level 73.1 %
Extraction speed 2.2 X
Track quality 100.0 %
Test CRC 51871B5A
Copy CRC 51871B5A
Track not present in AccurateRip database
Copy OK

Track 26

Filename L:\musique\rip\Fauré et ses poètes (Marc Mauillon, Anne Le Bozec) (2020) [FLAC] {902636}\26 - Soir (Albert Samain), op. 83 n°2.wav

Peak level 57.7 %
Extraction speed 2.5 X
Track quality 100.0 %
Test CRC 41A1F919
Copy CRC 41A1F919
Track not present in AccurateRip database
Copy OK

Track 27

Filename L:\musique\rip\Fauré et ses poètes (Marc Mauillon, Anne Le Bozec) (2020) [FLAC] {902636}\27 - Accompagnement (Albert Samain), op. 85 n°3.wav

Peak level 65.1 %
Extraction speed 2.8 X
Track quality 100.0 %
Test CRC 50E50595
Copy CRC 50E50595
Track not present in AccurateRip database
Copy OK

Track 28

Filename L:\musique\rip\Fauré et ses poètes (Marc Mauillon, Anne Le Bozec) (2020) [FLAC] {902636}\28 - La fleur qui va sur l'eau (Catulle Mendès), op. 85 n°2.wav

Peak level 67.5 %
Extraction speed 2.7 X
Track quality 100.0 %
Test CRC 3243C875
Copy CRC 3243C875
Track not present in AccurateRip database
Copy OK

Track 29

Filename L:\musique\rip\Fauré et ses poètes (Marc Mauillon, Anne Le Bozec) (2020) [FLAC] {902636}\29 - Dans la forêt de septembre (Catulle Mendèse), op. 85 n°1.wav

Peak level 38.3 %
Extraction speed 2.9 X
Track quality 100.0 %
Test CRC 3C3BF114
Copy CRC 3C3BF114
Track not present in AccurateRip database
Copy OK

Track 30

Filename L:\musique\rip\Fauré et ses poètes (Marc Mauillon, Anne Le Bozec) (2020) [FLAC] {902636}\30 - Le Don silencieux (Jean Dominique), op. 92.wav

Peak level 33.4 %
Extraction speed 2.7 X
Track quality 100.0 %
Test CRC 1A2217C1
Copy CRC 1A2217C1
Track not present in AccurateRip database
Copy OK

Track 31

Filename L:\musique\rip\Fauré et ses poètes (Marc Mauillon, Anne Le Bozec) (2020) [FLAC] {902636}\31 - Chanson (Henri de Régnier), op. 94.wav

Peak level 33.6 %
Extraction speed 2.6 X
Track quality 100.0 %
Test CRC CC64D133
Copy CRC CC64D133
Track not present in AccurateRip database
Copy OK


None of the tracks are present in the AccurateRip database

No errors occurred

End of status report

–– CUETools DB Plugin V2.1.6

[CTDB TOCID: DfsU_pkRp7w1A5mcpN11UkPvAwA-] disk not present in database
Submit result: External component has thrown an exception.


==== Log checksum 9F6B1A70D48F3BFCA185E34D30E8EFD1228D90181F74EA1C60EE73AF66C98B1C ====

Thanks to the Original ripper !