Subcategories

Margo Price - Midwest Farmer's Daughter (2016) {Third Man Records TMR 339}

Posted By: ruskaval
Margo Price - Midwest Farmer's Daughter (2016) {Third Man Records TMR 339}

Margo Price - Midwest Farmer's Daughter (2016) {Third Man Records TMR 339}
EAC rip (secure mode) | FLAC (tracks)+CUE+LOG -> 260 Mb | MP3 @320 -> 95 Mb
Full Artwork @ 300 dpi (jpg) -> 9 Mb | 5% repair rar
© 2016 Third Man Records | TMR 339
Country / Americana / Neo-Traditionalist Country / Contemporary Country

Midwest Farmer's Daughter isn't merely an autobiographical title for the retro country singer/songwriter Margo Price, it's a nice tip of the hat to one of her primary inspirations, Loretta Lynn. The connections between the two country singers don't end there. Toward the end of her career, the Coal Miner's Daughter wound up collaborating with Jack White for 2004's Van Lear Rose, and White's Third Man Records provides a launching pad for Price, releasing her self-financed solo debut as-is as Midwest Farmer's Daughter.

Spare and lean like Loretta in her prime, Price nevertheless writes with the studied precision of a modern Americana songwriter; even when she gets explicitly autobiographical, as she does on the opening "Hands of Time," it doesn't play as confession ripped from the soul, it plays as poetry. Similarly, when she tightens the screws so her song turns into something sleek, it doesn't play as Music City precision, it feels savvy and personal, surprising with its light hint of funk and Price's clear, plaintive, and powerful vocal. This tension between the head and heart, between the country and the city, is what fuels Midwest Farmer's Daughter, placing it on a warm, hazy plane that feels simultaneously sophisticated and down-home. Part of this dichotomy is due to Price's singing: she sounds like the Illinois girl that she is, possessing a voice that's pretty, plain, and unadorned, carrying an innocence that cuts against the worldliness of her songs. Her band, though, provides her songs with a genuine honky tonk kick, but even when the album drifts toward the traditional – as it does on "Hurtin' (On the Bottle)" or "Four Years of Chances" – Price's sensibility is modern, turning these old-fashioned tales of heartbreak, love, loss, and perseverance into something fresh and affecting.
Margo Price - Midwest Farmer's Daughter (2016) {Third Man Records TMR 339}


tracklist:
01 - Hands Of Time
02 - About To Find Out
03 - Tennessee Song
04 - Since You Put Me Down
05 - Four Years Of Chances
06 - This Town Gets Around
07 - How The Mighty Have Fallen
08 - Weekender
09 - Hurtin' (On The Bottle)
10 - World's Greatest Loser

Exact Audio Copy V1.0 beta 3 from 29. August 2011

EAC extraction logfile from 18. April 2016, 10:35

Margo Price / Midwest Farmer's Daughter

Used drive : ASUS DRW-24B1ST a Adapter: 1 ID: 0

Read mode : Secure
Utilize accurate stream : Yes
Defeat audio cache : Yes
Make use of C2 pointers : No

Read offset correction : 6
Overread into Lead-In and Lead-Out : No
Fill up missing offset samples with silence : Yes
Delete leading and trailing silent blocks : No
Null samples used in CRC calculations : Yes
Used interface : Native Win32 interface for Win NT & 2000
Gap handling : Appended to previous track

Used output format : User Defined Encoder
Selected bitrate : 896 kBit/s
Quality : High
Add ID3 tag : No
Command line compressor : C:\Program Files (x86)\Exact Audio Copy\Flac\flac.exe
Additional command line options : -8 -V -T "ARTIST=%artist%" -T "TITLE=%title%" -T "ALBUM=%albumtitle%" -T "DATE=%year%" -T "TRACKNUMBER=%tracknr%" -T "TOTALTRACKS=%numtracks%" -T "GENRE=%genre%" -T "ALBUMARTIST=%albumartist%" -T "ALBUM ARTIST=%albumartist%" -T "COMMENT=EAC Secure Mode, Test & Copy, AccurateRip, FLAC -8" %source%


TOC of the extracted CD

Track | Start | Length | Start sector | End sector
––––––––––––––––––––––––––––-
1 | 0:00.00 | 6:09.25 | 0 | 27699
2 | 6:09.25 | 3:12.49 | 27700 | 42148
3 | 9:21.74 | 4:40.33 | 42149 | 63181
4 | 14:02.32 | 4:52.65 | 63182 | 85146
5 | 18:55.22 | 4:33.30 | 85147 | 105651
6 | 23:28.52 | 2:55.52 | 105652 | 118828
7 | 26:24.29 | 3:11.33 | 118829 | 133186
8 | 29:35.62 | 4:40.64 | 133187 | 154250
9 | 34:16.51 | 4:12.36 | 154251 | 173186
10 | 38:29.12 | 1:33.67 | 173187 | 180228


Track 1

Filename E:\Flac Rips\A\Margo Price - Midwest Farmers Daughter (2016) [FLAC]\01 - Hands Of Time.wav

Pre-gap length 0:00:02.00

Peak level 97.7 %
Extraction speed 3.6 X
Track quality 100.0 %
Test CRC D7EEDFEB
Copy CRC D7EEDFEB
Track not present in AccurateRip database
Copy OK

Track 2

Filename E:\Flac Rips\A\Margo Price - Midwest Farmers Daughter (2016) [FLAC]\02 - About To Find Out.wav

Peak level 97.8 %
Extraction speed 3.8 X
Track quality 100.0 %
Test CRC 6D6A4A25
Copy CRC 6D6A4A25
Track not present in AccurateRip database
Copy OK

Track 3

Filename E:\Flac Rips\A\Margo Price - Midwest Farmers Daughter (2016) [FLAC]\03 - Tennessee Song.wav

Peak level 97.8 %
Extraction speed 4.3 X
Track quality 100.0 %
Test CRC D378CAE7
Copy CRC D378CAE7
Track not present in AccurateRip database
Copy OK

Track 4

Filename E:\Flac Rips\A\Margo Price - Midwest Farmers Daughter (2016) [FLAC]\04 - Since You Put Me Down.wav

Peak level 97.9 %
Extraction speed 4.6 X
Track quality 100.0 %
Test CRC 2F837B84
Copy CRC 2F837B84
Track not present in AccurateRip database
Copy OK

Track 5

Filename E:\Flac Rips\A\Margo Price - Midwest Farmers Daughter (2016) [FLAC]\05 - Four Years Of Chances.wav

Peak level 97.8 %
Extraction speed 4.9 X
Track quality 100.0 %
Test CRC 923CFB0A
Copy CRC 923CFB0A
Track not present in AccurateRip database
Copy OK

Track 6

Filename E:\Flac Rips\A\Margo Price - Midwest Farmers Daughter (2016) [FLAC]\06 - This Town Gets Around.wav

Peak level 97.7 %
Extraction speed 4.8 X
Track quality 100.0 %
Test CRC E601B32A
Copy CRC E601B32A
Track not present in AccurateRip database
Copy OK

Track 7

Filename E:\Flac Rips\A\Margo Price - Midwest Farmers Daughter (2016) [FLAC]\07 - How The Mighty Have Fallen.wav

Peak level 97.7 %
Extraction speed 5.1 X
Track quality 100.0 %
Test CRC 70C1C02C
Copy CRC 70C1C02C
Track not present in AccurateRip database
Copy OK

Track 8

Filename E:\Flac Rips\A\Margo Price - Midwest Farmers Daughter (2016) [FLAC]\08 - Weekender.wav

Peak level 97.8 %
Extraction speed 4.6 X
Track quality 99.9 %
Test CRC 67B21740
Copy CRC 67B21740
Track not present in AccurateRip database
Copy OK

Track 9

Filename E:\Flac Rips\A\Margo Price - Midwest Farmers Daughter (2016) [FLAC]\09 - Hurtin' (On The Bottle).wav

Peak level 97.8 %
Extraction speed 5.8 X
Track quality 100.0 %
Test CRC CADE1B87
Copy CRC CADE1B87
Track not present in AccurateRip database
Copy OK

Track 10

Filename E:\Flac Rips\A\Margo Price - Midwest Farmers Daughter (2016) [FLAC]\10 - World's Greatest Loser.wav

Peak level 97.7 %
Extraction speed 4.8 X
Track quality 100.0 %
Test CRC 2F4BEFD6
Copy CRC 2F4BEFD6
Track not present in AccurateRip database
Copy OK


None of the tracks are present in the AccurateRip database

No errors occurred

End of status report

==== Log checksum 945A4C101CD31252182DD5753DF49DE8A7E837F89762AB3F761A6C0206D4AA30 ====


Margo Price - Midwest Farmer's Daughter (2016) {Third Man Records TMR 339}

Margo Price - Midwest Farmer's Daughter (2016) {Third Man Records TMR 339}


All thanks goes to the original releaser!