Subcategories

Mauro Pagani - Domani (2003)

Posted By: Domestos
Mauro Pagani - Domani (2003)

Mauro Pagani - Domani (2003)
EAC Rip | FLAC (tracks+.cue, log) ~ 292.02 Mb + 15.53 Mb (Scans) | 44:30
Progressive Rock, Folk Rock | Label: NunFlower - NUN0149192

Mauro Pagani (born February 5, 1946) is an Italian musician and singer. Pagani was born in Chiari, Lombardy. A multi-instrumentalist, he made his debut in the music world in 1970 as violinist and founding member of the progressive rock band Premiata Forneria Marconi. In 1977 he left the band to follow a solo career, but in 2003 rejoined for a celebrative concert. His first solo album, titled "Mauro Pagani" (released in Tokyo in 1979 on Seven Seas and distributed by King Record Co.) included contributions by fellow PFM members Franz Di Cioccio, Patrick Djivas, and Walter Calloni; also showcasing an impressive line-up of guest musicians, including Area's Demetrio Stratos, Peter Gabriel, Giulio Capiozzo, Patrizio Fariselli, Ellade Bandini and Ares Tavolazzi ("L'Albero Di Canto" and "L'Albero Di Canto II" with Area backing Mauro exclusively). Roberto Colombo also played polimoog on "La Città Aromatica".

Pagani has been an experimenter of sound related to blues and Mediterranean music. He also collaborated with other famous artists, including Roberto Vecchioni, Gianna Nannini, Luciano Ligabue, Ornella Vanoni, and Fabrizio De André, with whom he composed the renowned LPs Creuza de mä (1984) and Le nuvole (1990).

He composed the soundtrack for four movies by the Italian director Gabriele Salvatores, Sogno di una notte d'estate (1983), Puerto Escondido (1992), Nirvana (1995) and Siberian Education (2013)



Track List:
1. Domani (04:10)
2. Per Sempre (04:16)
3. Parole A Caso (02:38)
4. The Big Nothing (05:34)
5. Frontefreddo (03:44)
6. Nessuno (04:09)
7. Fine Febbraio (03:36)
8. Sarà Vero (03:14)
9. Alibumaié (04:44)
10. Gli Occhi Grandi (03:44)
11. Quiero (03:16)
12. Psyco P. (03:14)
13. Ding Ding (01:44)

Mauro Pagani - Domani (2003)

Exact Audio Copy V1.3 from 2. September 2016

EAC extraction logfile from 24. May 2019, 11:46

Mauro Pagani / Domani

Used drive : hp DVDRW SU208GB Adapter: 1 ID: 0

Read mode : Secure
Utilize accurate stream : Yes
Defeat audio cache : Yes
Make use of C2 pointers : No

Read offset correction : 6
Overread into Lead-In and Lead-Out : No
Fill up missing offset samples with silence : Yes
Delete leading and trailing silent blocks : No
Null samples used in CRC calculations : Yes
Used interface : Native Win32 interface for Win NT & 2000
Gap handling : Appended to previous track

Used output format : User Defined Encoder
Selected bitrate : 1024 kBit/s
Quality : High
Add ID3 tag : No
Command line compressor : C:\Program Files\FLAC\win64\flac.exe
Additional command line options : -8 -e -p -V -T "ARTIST=%artist%" -T "TITLE=%title%" -T "ALBUM=%albumtitle%" -T "DATE=%year%" -T "TRACKNUMBER=%tracknr%" -T "GENRE=%genre%" -T "PERFORMER=%albuminterpret%" -T "COMPOSER=%composer%" %haslyrics%–tag-from-file=LYRICS="%lyricsfile%"%haslyrics% -T "ALBUMARTIST=%albumartist%" -T "DISCNUMBER=%cdnumber%" -T "TOTALDISCS=%totalcds%" -T "TOTALTRACKS=%numtracks%" -T "COMMENT=%comment%" %source% -o %dest%


TOC of the extracted CD

Track | Start | Length | Start sector | End sector
––––––––––––––––––––––––––––-
1 | 0:00.00 | 4:01.62 | 0 | 18136
2 | 4:01.62 | 4:15.70 | 18137 | 37331
3 | 8:17.57 | 2:37.48 | 37332 | 49154
4 | 10:55.30 | 5:34.04 | 49155 | 74208
5 | 16:29.34 | 3:43.72 | 74209 | 91005
6 | 20:13.31 | 4:09.04 | 91006 | 109684
7 | 24:22.35 | 3:35.54 | 109685 | 125863
8 | 27:58.14 | 3:14.21 | 125864 | 140434
9 | 31:12.35 | 4:43.53 | 140435 | 161712
10 | 35:56.13 | 3:34.18 | 161713 | 177780
11 | 39:30.31 | 3:16.02 | 177781 | 192482
12 | 42:46.33 | 3:14.04 | 192483 | 207036
13 | 46:00.37 | 1:43.66 | 207037 | 214827


Track 1

Filename C:\EAC Rips\Mauro Pagani - Domani (2003) [FLAC] {NUN 0149192}\01 - Domani.wav

Pre-gap length 0:00:02.00

Peak level 99.9 %
Extraction speed 1.4 X
Track quality 100.0 %
Test CRC A7B8E7F0
Copy CRC A7B8E7F0
Cannot be verified as accurate (confidence 8) [003D6D1A], AccurateRip returned [F8DD8211] (AR v2)
Copy OK

Track 2

Filename C:\EAC Rips\Mauro Pagani - Domani (2003) [FLAC] {NUN 0149192}\02 - Per Sempre.wav

Pre-gap length 0:00:01.69

Peak level 99.9 %
Extraction speed 1.1 X
Track quality 99.9 %
Test CRC 9DE432D3
Copy CRC 9DE432D3
Cannot be verified as accurate (confidence 8) [8C999EF3], AccurateRip returned [E63D6700] (AR v2)
Copy OK

Track 3

Filename C:\EAC Rips\Mauro Pagani - Domani (2003) [FLAC] {NUN 0149192}\03 - Parole a Caso.wav

Pre-gap length 0:00:01.53

Peak level 99.0 %
Extraction speed 1.2 X
Track quality 100.0 %
Test CRC DAB005C7
Copy CRC DAB005C7
Cannot be verified as accurate (confidence 8) [A416082D], AccurateRip returned [F528DEF4] (AR v2)
Copy OK

Track 4

Filename C:\EAC Rips\Mauro Pagani - Domani (2003) [FLAC] {NUN 0149192}\04 - The Big Nothing.wav

Pre-gap length 0:00:02.25

Peak level 100.0 %
Extraction speed 1.4 X
Track quality 100.0 %
Test CRC 7A85E221
Copy CRC 7A85E221
Cannot be verified as accurate (confidence 8) [112212F3], AccurateRip returned [AD5EC435] (AR v2)
Copy OK

Track 5

Filename C:\EAC Rips\Mauro Pagani - Domani (2003) [FLAC] {NUN 0149192}\05 - Frontefreddo.wav

Pre-gap length 0:00:01.77

Peak level 99.9 %
Extraction speed 1.4 X
Track quality 100.0 %
Test CRC CF6BF18A
Copy CRC CF6BF18A
Cannot be verified as accurate (confidence 8) [C73441D5], AccurateRip returned [32D7137D] (AR v2)
Copy OK

Track 6

Filename C:\EAC Rips\Mauro Pagani - Domani (2003) [FLAC] {NUN 0149192}\06 - Nessuno.wav

Pre-gap length 0:00:01.78

Peak level 100.0 %
Extraction speed 1.5 X
Track quality 100.0 %
Test CRC 949BE738
Copy CRC 949BE738
Cannot be verified as accurate (confidence 8) [9E4880A4], AccurateRip returned [5E7DF7ED] (AR v2)
Copy OK

Track 7

Filename C:\EAC Rips\Mauro Pagani - Domani (2003) [FLAC] {NUN 0149192}\07 - Fine Febbraio.wav

Pre-gap length 0:00:02.45

Peak level 99.9 %
Extraction speed 1.6 X
Track quality 100.0 %
Test CRC 1ECC29CE
Copy CRC 1ECC29CE
Cannot be verified as accurate (confidence 8) [D5752DC0], AccurateRip returned [432AC4B3] (AR v2)
Copy OK

Track 8

Filename C:\EAC Rips\Mauro Pagani - Domani (2003) [FLAC] {NUN 0149192}\08 - Sarà Vero.wav

Pre-gap length 0:00:01.34

Peak level 99.9 %
Extraction speed 1.6 X
Track quality 100.0 %
Test CRC F29CDB67
Copy CRC F29CDB67
Cannot be verified as accurate (confidence 8) [8BEBA5D8], AccurateRip returned [7C496648] (AR v2)
Copy OK

Track 9

Filename C:\EAC Rips\Mauro Pagani - Domani (2003) [FLAC] {NUN 0149192}\09 - Alibumaié.wav

Pre-gap length 0:00:02.56

Peak level 99.9 %
Extraction speed 1.8 X
Track quality 100.0 %
Test CRC E0895E64
Copy CRC E0895E64
Cannot be verified as accurate (confidence 8) [609FD5EE], AccurateRip returned [0EA594DA] (AR v2)
Copy OK

Track 10

Filename C:\EAC Rips\Mauro Pagani - Domani (2003) [FLAC] {NUN 0149192}\10 - Gli Occhi Grandi.wav

Pre-gap length 0:00:03.12

Peak level 88.1 %
Extraction speed 1.8 X
Track quality 100.0 %
Test CRC 8D90E679
Copy CRC 8D90E679
Cannot be verified as accurate (confidence 8) [0318BA61], AccurateRip returned [C788F8E9] (AR v2)
Copy OK

Track 11

Filename C:\EAC Rips\Mauro Pagani - Domani (2003) [FLAC] {NUN 0149192}\11 - Quiero.wav

Pre-gap length 0:00:02.10

Peak level 100.0 %
Extraction speed 1.8 X
Track quality 100.0 %
Test CRC 13892B05
Copy CRC 13892B05
Cannot be verified as accurate (confidence 8) [7DFA16AD], AccurateRip returned [34BFB629] (AR v2)
Copy OK

Track 12

Filename C:\EAC Rips\Mauro Pagani - Domani (2003) [FLAC] {NUN 0149192}\12 - Psyco P..wav

Pre-gap length 0:00:00.50

Peak level 99.9 %
Extraction speed 1.8 X
Track quality 100.0 %
Test CRC F53B14D8
Copy CRC F53B14D8
Cannot be verified as accurate (confidence 8) [E10A3CAA], AccurateRip returned [30A036C4] (AR v2)
Copy OK

Track 13

Filename C:\EAC Rips\Mauro Pagani - Domani (2003) [FLAC] {NUN 0149192}\13 - Ding Ding.wav

Pre-gap length 0:00:02.32

Peak level 99.9 %
Extraction speed 1.6 X
Track quality 100.0 %
Test CRC E8CE6EFD
Copy CRC E8CE6EFD
Cannot be verified as accurate (confidence 8) [1E72169E], AccurateRip returned [925D4510] (AR v2)
Copy OK


No tracks could be verified as accurate
You may have a different pressing from the one(s) in the database

No errors occurred

End of status report

–– CUETools DB Plugin V2.1.6

[CTDB TOCID: J.Xtu1LKANXC3dI_7appmQ1Tn9w-] found
Submit result: J.Xtu1LKANXC3dI_7appmQ1Tn9w- has been confirmed
Track | CTDB Status
1 | (15/15) Accurately ripped
2 | (15/15) Accurately ripped
3 | (15/15) Accurately ripped
4 | ( 5/15) Accurately ripped
5 | (15/15) Accurately ripped
6 | (15/15) Accurately ripped
7 | (15/15) Accurately ripped
8 | (15/15) Accurately ripped
9 | ( 5/15) Accurately ripped
10 | (15/15) Accurately ripped
11 | (15/15) Accurately ripped
12 | (15/15) Accurately ripped
13 | (15/15) Accurately ripped


==== Log checksum 7DF1BBDD3370F79484309CE0A03E51177CD84973A5CE7FF19B01B9F8CBF487AF ====

All thanks go to the RED

More Music in My Blog
Follow My RSS Channel