Subcategories
Tags
Language
Tags

Max Ionata, Clarence Penn, Reuben Rogers - Kind of Trio (2011) {Jando Music WJ 074}

Posted By: ruskaval
Max Ionata, Clarence Penn, Reuben Rogers - Kind of Trio (2011) {Jando Music WJ 074}

Max Ionata, Clarence Penn, Reuben Rogers - Kind of Trio (2011) {Jando Music WJ 074}
XLD rip (secure mode) | FLAC (tracks)+CUE+LOG -> 402 Mb | MP3 @320 -> 140 Mb
Full Artwork @ 300 dpi (jpg) -> 20 Mb | 5% repair rar
© 2011 Jando Music / Millesuone | WJ 074
Jazz / Post Bop / Saxophone / Bass / Drums

A trio of great affection, already experienced in the past with another successful record job, this time Max Ionata, Clarence Penn and Reuben Rogers are working on an original record project using the formula of the trio.

Trio di grande affiatamento, gia sperimentato in passato con un altro lavoro discografico di successo, questa volta Max Ionata, Clarence Penn e Reuben Rogers si cimentano in un progetto discografico originale sfruttando la formula del trio.

Personnel:
Max Ionata - tenor sax
Clarence Penn - drums
Reuben Rogers - double bass

tracklist:
01 - brotherhood
02 - con Alma
03 - kumico
04 - but
05 - out back
06 - nuovo cinema paradiso love theme
07 - the change
08 - to be
09 - raven
10 - aurora
11 - waiting for Eli

X Lossless Decoder version 20110703 (135.1)

XLD extraction logfile from 2011-11-09 16:22:02 +0000

Max Ionata, Clarence Penn, Reuben Rogers / Kind of Trio

Used drive : MATSHITA DVD-R UJ-85J (revision FM0S)

Ripper mode : XLD Secure Ripper
Disable audio cache : OK for the drive with a cache less than 1375KiB
Make use of C2 pointers : NO
Read offset correction : 102
Max retry count : 100
Gap status : Analyzed, Appended (except HTOA)

TOC of the extracted CD
Track | Start | Length | Start sector | End sector
––––––––––––––––––––––––––––-
1 | 00:00:00 | 06:48:52 | 0 | 30651
2 | 06:48:52 | 07:22:73 | 30652 | 63874
3 | 14:11:50 | 04:16:51 | 63875 | 83125
4 | 18:28:26 | 05:22:37 | 83126 | 107312
5 | 23:50:63 | 05:34:12 | 107313 | 132374
6 | 29:25:00 | 05:51:37 | 132375 | 158736
7 | 35:16:37 | 04:03:51 | 158737 | 177012
8 | 39:20:13 | 05:51:33 | 177013 | 203370
9 | 45:11:46 | 04:28:52 | 203371 | 223522
10 | 49:40:23 | 06:29:47 | 223523 | 252744
11 | 56:09:70 | 03:59:06 | 252745 | 270675

AccurateRip Summary
Disc not found in AccurateRip DB.

All Tracks
Album gain : -5.84 dB
Peak : 1.000000
Statistics
Read error : 0
Jitter error (maybe fixed) : 0
Retry sector count : 0
Damaged sector count : 0

Track 01
Filename : /Volumes/8-Jazz + altro/ Flac/Max Ionata, Clarence Penn, Reuben Rogers - Kind of Trio (2011) [FLAC] {Jandomusic}/01 - brotherhood.flac
Pre-gap length : 00:02:00

Track gain : -5.49 dB
Peak : 0.977417
CRC32 hash (test run) : 475C1AEE
CRC32 hash : 475C1AEE
CRC32 hash (skip zero) : C2C1C35B
AccurateRip signature : 7E803F56
->Track not present in AccurateRip database.
Statistics
Read error : 0
Jitter error (maybe fixed) : 0
Retry sector count : 0
Damaged sector count : 0

Track 02
Filename : /Volumes/8-Jazz + altro/ Flac/Max Ionata, Clarence Penn, Reuben Rogers - Kind of Trio (2011) [FLAC] {Jandomusic}/02 - con Alma.flac
Pre-gap length : 00:02:00

Track gain : -6.40 dB
Peak : 1.000000
CRC32 hash (test run) : CFB60B66
CRC32 hash : CFB60B66
CRC32 hash (skip zero) : F21E8669
AccurateRip signature : 1927E01D
->Track not present in AccurateRip database.
Statistics
Read error : 0
Jitter error (maybe fixed) : 0
Retry sector count : 0
Damaged sector count : 0

Track 03
Filename : /Volumes/8-Jazz + altro/ Flac/Max Ionata, Clarence Penn, Reuben Rogers - Kind of Trio (2011) [FLAC] {Jandomusic}/03 - kumico.flac
Pre-gap length : 00:02:00

Track gain : -6.23 dB
Peak : 0.988281
CRC32 hash (test run) : 8415C940
CRC32 hash : 8415C940
CRC32 hash (skip zero) : 496AD864
AccurateRip signature : B6000049
->Track not present in AccurateRip database.
Statistics
Read error : 0
Jitter error (maybe fixed) : 0
Retry sector count : 0
Damaged sector count : 0

Track 04
Filename : /Volumes/8-Jazz + altro/ Flac/Max Ionata, Clarence Penn, Reuben Rogers - Kind of Trio (2011) [FLAC] {Jandomusic}/04 - but.flac
Pre-gap length : 00:02:00

Track gain : -6.49 dB
Peak : 0.997101
CRC32 hash (test run) : 9C289483
CRC32 hash : 9C289483
CRC32 hash (skip zero) : 080F43D0
AccurateRip signature : C1236A24
->Track not present in AccurateRip database.
Statistics
Read error : 0
Jitter error (maybe fixed) : 0
Retry sector count : 0
Damaged sector count : 0

Track 05
Filename : /Volumes/8-Jazz + altro/ Flac/Max Ionata, Clarence Penn, Reuben Rogers - Kind of Trio (2011) [FLAC] {Jandomusic}/05 - out back.flac
Pre-gap length : 00:02:00

Track gain : -6.82 dB
Peak : 1.000000
CRC32 hash (test run) : CB3903A3
CRC32 hash : CB3903A3
CRC32 hash (skip zero) : 4C4C9CAF
AccurateRip signature : 123B456C
->Track not present in AccurateRip database.
Statistics
Read error : 0
Jitter error (maybe fixed) : 0
Retry sector count : 0
Damaged sector count : 0

Track 06
Filename : /Volumes/8-Jazz + altro/ Flac/Max Ionata, Clarence Penn, Reuben Rogers - Kind of Trio (2011) [FLAC] {Jandomusic}/06 - nuovo cinema paradiso love theme.flac
Pre-gap length : 00:02:00

Track gain : -5.44 dB
Peak : 0.999969
CRC32 hash (test run) : B1DC2362
CRC32 hash : B1DC2362
CRC32 hash (skip zero) : F3620450
AccurateRip signature : 65FA9DC0
->Track not present in AccurateRip database.
Statistics
Read error : 0
Jitter error (maybe fixed) : 0
Retry sector count : 0
Damaged sector count : 0

Track 07
Filename : /Volumes/8-Jazz + altro/ Flac/Max Ionata, Clarence Penn, Reuben Rogers - Kind of Trio (2011) [FLAC] {Jandomusic}/07 - the change.flac
Pre-gap length : 00:02:00

Track gain : -5.25 dB
Peak : 0.978882
CRC32 hash (test run) : F7FB25AB
CRC32 hash : F7FB25AB
CRC32 hash (skip zero) : 5B6A54C0
AccurateRip signature : 5F0769C2
->Track not present in AccurateRip database.
Statistics
Read error : 0
Jitter error (maybe fixed) : 0
Retry sector count : 0
Damaged sector count : 0

Track 08
Filename : /Volumes/8-Jazz + altro/ Flac/Max Ionata, Clarence Penn, Reuben Rogers - Kind of Trio (2011) [FLAC] {Jandomusic}/08 - to be.flac
Pre-gap length : 00:02:00

Track gain : -2.57 dB
Peak : 0.920746
CRC32 hash (test run) : 829EF2C5
CRC32 hash : 829EF2C5
CRC32 hash (skip zero) : 1D6FF593
AccurateRip signature : 264F63B2
->Track not present in AccurateRip database.
Statistics
Read error : 0
Jitter error (maybe fixed) : 0
Retry sector count : 0
Damaged sector count : 0

Track 09
Filename : /Volumes/8-Jazz + altro/ Flac/Max Ionata, Clarence Penn, Reuben Rogers - Kind of Trio (2011) [FLAC] {Jandomusic}/09 - raven.flac
Pre-gap length : 00:02:00

Track gain : -4.33 dB
Peak : 1.000000
CRC32 hash (test run) : FD002644
CRC32 hash : FD002644
CRC32 hash (skip zero) : A6B4DCC9
AccurateRip signature : 2C8FEBF3
->Track not present in AccurateRip database.
Statistics
Read error : 0
Jitter error (maybe fixed) : 0
Retry sector count : 0
Damaged sector count : 0

Track 10
Filename : /Volumes/8-Jazz + altro/ Flac/Max Ionata, Clarence Penn, Reuben Rogers - Kind of Trio (2011) [FLAC] {Jandomusic}/10 - aurora.flac
Pre-gap length : 00:02:00

Track gain : -5.54 dB
Peak : 0.987518
CRC32 hash (test run) : AE010D18
CRC32 hash : AE010D18
CRC32 hash (skip zero) : 807DC3D3
AccurateRip signature : AD902038
->Track not present in AccurateRip database.
Statistics
Read error : 0
Jitter error (maybe fixed) : 0
Retry sector count : 0
Damaged sector count : 0

Track 11
Filename : /Volumes/8-Jazz + altro/ Flac/Max Ionata, Clarence Penn, Reuben Rogers - Kind of Trio (2011) [FLAC] {Jandomusic}/11 - waiting for Eli.flac
Pre-gap length : 00:02:00

Track gain : -5.14 dB
Peak : 0.988159
CRC32 hash (test run) : 065A2501
CRC32 hash : 065A2501
CRC32 hash (skip zero) : 338D1D7C
AccurateRip signature : DC9FBC67
->Track not present in AccurateRip database.
Statistics
Read error : 0
Jitter error (maybe fixed) : 0
Retry sector count : 0
Damaged sector count : 0

No errors occurred

End of status report


Max Ionata, Clarence Penn, Reuben Rogers - Kind of Trio (2011) {Jando Music WJ 074}

Max Ionata, Clarence Penn, Reuben Rogers - Kind of Trio (2011) {Jando Music WJ 074}



===