Subcategories

McCoy Tyner - Guitars (2008) {CD+DVD Set, Half Note HN 4537}

Posted By: ruskaval
McCoy Tyner - Guitars (2008) {CD+DVD Set, Half Note HN 4537}

McCoy Tyner - Guitars (2008) {CD+DVD Set, Half Note HN 4537}
EAC rip (secure mode) | FLAC (tracks)+CUE+LOG -> 423 Mb | MP3 @320 -> 177 Mb
DVD9 -> 6.21 Gb | All Regions | NTSC 4:3 | Dolby AC3, 2 ch | ~ 55 min | ISO Image
Full Artwork @ 300 dpi (jpg) -> 72 Mb | 5% repair rar
© 2008 Half Note / McCoy Tyner Music | HN 4537
Jazz / Post Bop / Piano / Guitar

''I've never done anything like this before'' McCoy Tyner recently said of his second album on McCoy Tyner Music/Half Note Records, a CD/DVD titled GUITARS. Along with a trio of Ron Carter and Jack DeJohnette, Tyner invited guitarists Bill Frisell, Derek Trucks, John Scofield, Marc Ribot, and banjoist Bela Fleck for the studio recording and DVD shoot, scheduled for a September 23 release. ''It was great, and each guy had his own concept and own sound which is very, very important on any instrument, '' said Tyner, ''You know, I look for that, the individual sound and concept.''

Legendary producer John Snyder oversaw the project along with executive producers Jeff Levenson, VP of McCoy Tyner Muisc/Half Note Records, and Steve Bensusan, President of the Blue Note Jazz Club. Said Levenson, ''What impressed me about the project was how seamless the integration was. We have guys with disparate styles. You have guys who approach their instruments differently. The beauty of this project is how they all found common ground with McCoy. ''

The CD is accompanied by a state of the art DVD featuring songs with each special guest guitarist and bonus footage. The DVD has 3 hours of multiple-angle viewing capability. By clicking the ANGLE button on the remote or the player on a computer, one can watch the Editor s Cut on Angle 1, all four musicians at once with Angle 2 (4 quadrants), or isolate any of the musicians and watch them exclusively with Angles 3 through 6.
McCoy Tyner - Guitars (2008) {CD+DVD Set, Half Note HN 4537}


Personnel
McCoy Tyner (piano)
Derek Trucks, Marc Ribot, Bill Frisell, John Scofield (guitar)
Bela Fleck (banjo)
Ron Carter (upright bass)
Jack DeJohnette (drums)

Track Listing

CD

01. Improvisation 2 (With Marc Ribot)
02. Passion Dance (With Marc Ribot)
03. 500 Miles (With Marc Ribot)
04. MR. P.C. (With John Scofield)
05. Blues On The Corner (With John Scofield)
06. Improvisation 1 (With Marc Ribot)
07. Trade Winds (With Bela Fleck)
08. Amberjack (With Bela Fleck)
09. My Favorite Things (With Bela Fleck)
10. Slapback Blues (With Derek Trucks)
11. Greensleeves (With Derek Trucks)
12. Contemplation (With Bill Frisell)
13. Boubacar (With Bill Frisell)
14. Baba Drame (With Bill Frisell)

DVD with video footage from the studio sessions
VD contents are not listed per track on the release; they are as they appear on the DVD menu. The main content is the footage from the recording sessions (DVD.1 to DVD.5, divided into 10 chapters - rehearsals plus actual recording for each); the bonus material (DVD.6 to DVD.9 in 4 chapters) is available under a sub-menu.

Exact Audio Copy V1.1 from 23. June 2015

EAC extraction logfile from 18. April 2018, 16:02

McCoy Tyner / Guitars

Used drive : PLDS DVD+-RW DH-16AES Adapter: 1 ID: 0

Read mode : Secure
Utilize accurate stream : Yes
Defeat audio cache : Yes
Make use of C2 pointers : No

Read offset correction : 6
Overread into Lead-In and Lead-Out : No
Fill up missing offset samples with silence : Yes
Delete leading and trailing silent blocks : No
Null samples used in CRC calculations : Yes
Used interface : Native Win32 interface for Win NT & 2000
Gap handling : Appended to previous track

Used output format : User Defined Encoder
Selected bitrate : 1024 kBit/s
Quality : High
Add ID3 tag : No
Command line compressor : C:\Program Files (x86)\Exact Audio Copy\FLAC\FLAC.EXE
Additional command line options : -8 -e -V -T "ARTIST=%artist%" -T "TITLE=%title%" -T "ALBUM=%albumtitle%" -T "DATE=%year%" -T "TRACKNUMBER=%tracknr%" -T "GENRE=%genre%" -T "PERFORMER=%albuminterpret%" -T "COMPOSER=%composer%" %haslyrics%–tag-from-file=LYRICS="%lyricsfile%"%haslyrics% -T "ALBUMARTIST=%albumartist%" -T "DISCNUMBER=%cdnumber%" -T "TOTALDISCS=%totalcds%" -T "TOTALTRACKS=%numtracks%" -T "COMMENT=%comment%" %source% -o %dest%


TOC of the extracted CD

Track | Start | Length | Start sector | End sector
––––––––––––––––––––––––––––-
1 | 0:00.00 | 1:34.74 | 0 | 7123
2 | 1:34.74 | 6:10.27 | 7124 | 34900
3 | 7:45.26 | 6:22.74 | 34901 | 63624
4 | 14:08.25 | 6:21.03 | 63625 | 92202
5 | 20:29.28 | 6:07.32 | 92203 | 119759
6 | 26:36.60 | 3:46.71 | 119760 | 136780
7 | 30:23.56 | 6:35.60 | 136781 | 166465
8 | 36:59.41 | 4:36.21 | 166466 | 187186
9 | 41:35.62 | 7:01.44 | 187187 | 218805
10 | 48:37.31 | 3:46.68 | 218806 | 235823
11 | 52:24.24 | 6:15.02 | 235824 | 263950
12 | 58:39.26 | 7:55.02 | 263951 | 299577
13 | 66:34.28 | 2:18.51 | 299578 | 309978
14 | 68:53.04 | 5:21.60 | 309979 | 334113


Track 1

Filename C:\cdrips\01 - Improvisation 2 (with Marc Ribot).wav

Pre-gap length 0:00:02.00

Peak level 73.8 %
Extraction speed 3.8 X
Track quality 100.0 %
Test CRC 541216D2
Copy CRC 541216D2
Accurately ripped (confidence 38) [1F8B5D65] (AR v2)
Copy OK

Track 2

Filename C:\cdrips\02 - Passion Dance (with Marc Ribot).wav

Peak level 100.0 %
Extraction speed 5.3 X
Track quality 100.0 %
Test CRC 95F369B3
Copy CRC 95F369B3
Accurately ripped (confidence 38) [788B9881] (AR v2)
Copy OK

Track 3

Filename C:\cdrips\03 - 500 Miles (with Marc Ribot).wav

Pre-gap length 0:00:01.00

Peak level 99.9 %
Extraction speed 5.9 X
Track quality 100.0 %
Test CRC 20E0B2B0
Copy CRC 20E0B2B0
Accurately ripped (confidence 38) [7B79FDA0] (AR v2)
Copy OK

Track 4

Filename C:\cdrips\04 - Mr. P.C. (with John Scofield).wav

Pre-gap length 0:00:04.00

Peak level 100.0 %
Extraction speed 6.5 X
Track quality 100.0 %
Test CRC 5B7384C3
Copy CRC 5B7384C3
Accurately ripped (confidence 38) [76F43B8F] (AR v2)
Copy OK

Track 5

Filename C:\cdrips\05 - Blues on the Corner (with John Scofield).wav

Peak level 99.9 %
Extraction speed 7.0 X
Track quality 100.0 %
Test CRC 2D6EE289
Copy CRC 2D6EE289
Accurately ripped (confidence 38) [829BC57C] (AR v2)
Copy OK

Track 6

Filename C:\cdrips\06 - Improvisation 1 (with Marc Ribot).wav

Pre-gap length 0:00:02.00

Peak level 60.5 %
Extraction speed 7.0 X
Track quality 100.0 %
Test CRC 9D7BA975
Copy CRC 9D7BA975
Accurately ripped (confidence 39) [B704E538] (AR v2)
Copy OK

Track 7

Filename C:\cdrips\07 - Trade Winds (with Béla Fleck).wav

Pre-gap length 0:00:02.00

Peak level 100.0 %
Extraction speed 7.8 X
Track quality 100.0 %
Test CRC 439CA5CA
Copy CRC 439CA5CA
Accurately ripped (confidence 39) [809E797A] (AR v2)
Copy OK

Track 8

Filename C:\cdrips\08 - Amberjack (with Béla Fleck).wav

Pre-gap length 0:00:02.00

Peak level 100.0 %
Extraction speed 7.9 X
Track quality 100.0 %
Test CRC 299658D6
Copy CRC 299658D6
Accurately ripped (confidence 39) [AE525C93] (AR v2)
Copy OK

Track 9

Filename C:\cdrips\09 - My Favorite Things (with Béla Fleck).wav

Peak level 100.0 %
Extraction speed 8.6 X
Track quality 100.0 %
Test CRC 4BC42823
Copy CRC 4BC42823
Accurately ripped (confidence 39) [6E0181D1] (AR v2)
Copy OK

Track 10

Filename C:\cdrips\10 - Slapback Blues (with Derek Trucks).wav

Pre-gap length 0:00:04.00

Peak level 100.0 %
Extraction speed 8.4 X
Track quality 100.0 %
Test CRC F5E3B6CF
Copy CRC F5E3B6CF
Accurately ripped (confidence 40) [6AE3AF4D] (AR v2)
Copy OK

Track 11

Filename C:\cdrips\11 - Greensleeves (with Derek Trucks).wav

Peak level 100.0 %
Extraction speed 9.2 X
Track quality 100.0 %
Test CRC 41E36A5E
Copy CRC 41E36A5E
Accurately ripped (confidence 40) [BD067012] (AR v2)
Copy OK

Track 12

Filename C:\cdrips\12 - Contemplation (with Bill Frisell).wav

Pre-gap length 0:00:04.00

Peak level 99.9 %
Extraction speed 9.7 X
Track quality 100.0 %
Test CRC 9599CA4C
Copy CRC 9599CA4C
Accurately ripped (confidence 37) [B3F6204F] (AR v2)
Copy OK

Track 13

Filename C:\cdrips\13 - Boubacar (with Bill Frisell).wav

Pre-gap length 0:00:02.00

Peak level 100.0 %
Extraction speed 8.5 X
Track quality 100.0 %
Test CRC 7753DF8D
Copy CRC 7753DF8D
Accurately ripped (confidence 38) [A5036672] (AR v2)
Copy OK

Track 14

Filename C:\cdrips\14 - Baba Drame (with Bill Frisell).wav

Peak level 100.0 %
Extraction speed 9.9 X
Track quality 100.0 %
Test CRC 8BD014DA
Copy CRC 8BD014DA
Accurately ripped (confidence 39) [425D795D] (AR v2)
Copy OK


All tracks accurately ripped

No errors occurred

End of status report

–– CUETools DB Plugin V2.1.6

[CTDB TOCID: scwdfcJhhVT2oanLNmfK6dZ4LVM-] found
Submit result: already submitted
Track | CTDB Status
1 | ( 53/101) Accurately ripped
2 | ( 53/101) Accurately ripped
3 | ( 98/101) Accurately ripped
4 | ( 53/101) Accurately ripped
5 | ( 98/101) Accurately ripped
6 | ( 53/101) Accurately ripped
7 | (101/101) Accurately ripped
8 | (101/101) Accurately ripped
9 | (101/101) Accurately ripped
10 | ( 53/101) Accurately ripped
11 | ( 53/101) Accurately ripped
12 | ( 97/101) Accurately ripped
13 | ( 99/101) Accurately ripped
14 | ( 93/101) Accurately ripped


==== Log checksum C3B3596DA8DC1AD8EAC29C1B4BE0B941801B140B7FCC92ACB9B888BFFF514C56 ====


McCoy Tyner - Guitars (2008) {CD+DVD Set, Half Note HN 4537}

McCoy Tyner - Guitars (2008) {CD+DVD Set, Half Note HN 4537}

McCoy Tyner - Guitars (2008) {CD+DVD Set, Half Note HN 4537}

McCoy Tyner - Guitars (2008) {CD+DVD Set, Half Note HN 4537}

McCoy Tyner - Guitars (2008) {CD+DVD Set, Half Note HN 4537}

McCoy Tyner - Guitars (2008) {CD+DVD Set, Half Note HN 4537}

McCoy Tyner - Guitars (2008) {CD+DVD Set, Half Note HN 4537}



===