Subcategories

The Methadones / The Copyrights - Split CD (2008) RESTORED

Posted By: Rehabilly
The Methadones / The Copyrights - Split CD (2008) RESTORED

Methadones / Copyrights - Split CD (2008)
FLAC+CUE+LOG or MP3 CBR 320 | 25:19 min | 191 or 58 MB

Their first release on their own label. Both bands have really outdone themselves this time, writing some of their best material to date. 12 amazing new songs make this awesome split an instant pop punk classic.

For pop punk fans that live in the Chicago area you would almost think that The Methadones and The Copyrights are conjoined twins in need of surgery. Both bands have played shows together countless times, both share a home on Red Scare records, and both have been putting out consistently solid pop punk albums nonstop over the past few years. So it’s inevitable that the Copyrights and the Methadones would decide to do a split album together. This time around both bands decide to skip the middle man and put out the split D.I.Y. on their own label entitled Transparent records. The results of this split should please just about every fan of either band.

The Methadones start things off with six songs. Their sound on this split picks up pretty much where their last full length This Won’t Hurt left off, with more of a focus on melodic power pop, including lyrics mainly consisting about anxieties in relationships and far less songs about television. Highlights include "Imperfect World", which starts things off with a bang. "3-2-1" musically reminds me more of their material from Not Economically Viable. My favorite Methadones song from this split would have to be "Under The Skyline" which is about the wonderful city of Chicago. "On The Clock" is another great tune that anyone with a shitty job can relate too. I didn’t care but I’m guessing a few people might have some quips about an older band such as the Methadones complaining about their day jobs as though they were still a bunch of teenagers working part-time jobs. "Easter Island" is nothing but brilliant power pop; the acoustic guitar at the beginning of the song is a great touch. Finally "What Do You Believe In?" is another great power pop tune on the subject matter of relationships.

Now if you’re worried that the Copyrights wouldn’t be able to deliver a great set of songs after putting out three full-length albums within three years, these songs will crush any worries you might have. Hell, their contribution to this split just might be their best material to date. "Keep Me In The Dark" starts things off as an instant highlight. I dare you not to sing along to it, it’s impossible. "Trapped On A Reel" and "Flooded Basements, Abandoned Beaches" are also highlights and share a common thread when you connect the lyrics together; being broke, working dead end jobs, but realizing you enjoy the life you have despite not having a dime to your name. "Holidays" is my personal favorite from the Copyrights side; it’s definitely a song that you’ll want to play during holidays and whenever you just wish there would be one on the calendar. The Copyrights finish off their part of the split with a wonderful punked up cover of the 1996 alternative radio hit "Standing Outside a Broken Phone Booth With Money in My Hand" by The Primitive Radio Gods. For whatever reason the song is re-titled to "Locked Outside A Motel Without Shoes, A Wallet, Or A Phone".

To conclude, this is a tremendous split album with great contributions from both the Methadones and the Copyrights. The production from Atlas Studios makes both bands sound flawless without making either of them sound over-produced or lifeless. As a fan of both bands this split did not let me down one bit. The only real downside to it is that before you know it you’ve listened to the entire album. Oh and beware, the album cover might scare young children.

~ Review by JerryCola, Punknews.org
Tracklist:

01. Methadones – Imperfect World / listen
02. Methadones – 3-2-1
03. Methadones – Under The Skyline
04. Methadones – On The Clock
05. Methadones – Easter Island
06. Methadones – What Do You Believe In?
07. Copyrights – Keep Me In The Dark
08. Copyrights – Trapped On A Reel
09. Copyrights – We're Not Gonna Make It
10. Copyrights – Holidays
11. Copyrights – Flooded Basements, Abandoned Beaches
12. Copyrights – Locked Outside A Motel Without Shoes, A Wallet, Or A Phone

Transparent records is a brand new label set up by both Dan Schafer of the Methadones and Adam Fletcher of the Copyrights. Their first release is the split CD from both bands, coming in July 2008.

Exact Audio Copy V0.99 prebeta 5 from 4. May 2009

EAC extraction logfile from 23. May 2009, 1:08

Various / Methadones / Copyrights

Used drive : ASUS DRW-1814BL Adapter: 1 ID: 0

Read mode : Secure
Utilize accurate stream : Yes
Defeat audio cache : Yes
Make use of C2 pointers : No

Read offset correction : 6
Overread into Lead-In and Lead-Out : No
Fill up missing offset samples with silence : Yes
Delete leading and trailing silent blocks : No
Null samples used in CRC calculations : Yes
Used interface : Installed external ASPI interface

Used output format : Internal WAV Routines
Sample format : 44.100 Hz; 16 Bit; Stereo


TOC of the extracted CD

Track | Start | Length | Start sector | End sector
––––––––––––––––––––––––––––-
1 | 0:00.00 | 1:25.51 | 0 | 6425
2 | 1:25.51 | 1:21.55 | 6426 | 12555
3 | 2:47.31 | 2:00.07 | 12556 | 21562
4 | 4:47.38 | 1:59.50 | 21563 | 30537
5 | 6:47.13 | 3:42.17 | 30538 | 47204
6 | 10:29.30 | 2:24.43 | 47205 | 58047
7 | 12:53.73 | 1:52.69 | 58048 | 66516
8 | 14:46.67 | 1:40.17 | 66517 | 74033
9 | 16:27.09 | 2:10.15 | 74034 | 83798
10 | 18:37.24 | 2:34.64 | 83799 | 95412
11 | 21:12.13 | 1:42.04 | 95413 | 103066
12 | 22:54.17 | 2:24.64 | 103067 | 113930


Range status and errors

Selected range

Filename C:\200\The Methadones + The Copyrights - Split (2008)\Methadones + Copyrights - Split (2008).wav

Peak level 97.7 %
Range quality 100.0 %
Test CRC 17040A17
Copy CRC 17040A17
Copy OK

No errors occurred


AccurateRip summary

Track 1 not present in database
Track 2 not present in database
Track 3 not present in database
Track 4 not present in database
Track 5 not present in database
Track 6 not present in database
Track 7 not present in database
Track 8 not present in database
Track 9 not present in database
Track 10 not present in database
Track 11 not present in database
Track 12 not present in database

None of the tracks are present in the AccurateRip database

End of status report

Recorded at Atlas Studios, Chicago, IL, in May 2008
Engineered by Matt Allison. Mastered by Colin Jordan at Boiler Room.

The Methadones:
• Dan Schafer - vocals, guitar
• Mike Birn - guitar
• Pete Mittler - bass
• Mike Soucy - drums

The Copyrights:
• Brett Hunter - vocals, guitar
• Jeff Funburg - vocals, guitar
• Adam Fletcher - bass, vocals
• Luke McNeill - drums

Release Date: July 1, 2008
Label: Transparent Records
Catalog No.: TPR-001
The Right choice*
http://filepost.com/files/m6f2ad58/MTD208SWC23F.part1.rar
http://filepost.com/files/mc17c2aa/MTD208SWC23F.part2.rar

all covers.jpg (28 MB)
http://filepost.com/files/ed16mf3f/MTD208SWC360C.rar

lossy.mp3
http://filepost.com/files/9f568m98/MTD208SWC20G.rar


* Original CD -> EAC image, embedded cuesheet & more, foobar2000 ready, etc.
(all CUEs, LOGs and other technical info includes in the internal "CD_Support" archive)