Tags
Language
Tags

Michael Feinstein with The Maynard Ferguson Big Band - Big City Rhythms (1999)

Posted By: Domestos
Michael Feinstein with The Maynard Ferguson Big Band - Big City Rhythms (1999)

Michael Feinstein with The Maynard Ferguson Big Band - Big City Rhythms (1999)
EAC Rip | FLAC (tracks+.cue, log) ~ 355.01 Mb | 01:05:03 | Covers
Vocal Jazz | Country: USA | Label: Concord Records - CCD-4869-2

The pairing of premier era-gone-by pianist/crooner Michael Feinstein and the legendary Maynard Ferguson Big Band is such a rousing success that it's surprising the two didn't think of it before. While the set mainly consists of whatever beautiful, offbeat standards Feinstein hasn't yet had the opportunity to record (including the sassy Bobby Troup number "Girl Talk" and the humorous Rodgers & Hart tune "Johnny One Note"), he sums up not only the spirit of this recording but of his whole retro-minded career on the clever original "Swing Is Back in Style."

With the 21-piece big band simmering in the background, just waiting to splash in with some playful brass accents, Feinstein chronicles the rock and rap eras and says, essentially, it don't mean a thing if it ain't got that…. While he's always shown talent as a songwriter, his success rises and falls completely on his interpretive style, and here he is in top form from the opening strains of the bold, heavily swinging "Close Your Eyes." Typically on uptempo gems like this, he'll let the band rise as a harmony line, then give it ample time to strut its stuff after the final verse and before the final chorus. Other unique choices are "One Day at a Time," which speaks to the ephemeralness of life (like Gershwin's "Our Love Is Here to Stay," a Feinstein favorite), and "Love Is Nothin' But a Racket." Ferguson mostly leads his explosive ensemble here but occasionally blows solo – and there's nothin' finer than that. ~ AllMusic Review by Jonathan Widran



Track List:
01. Close Your Eyes (2:59)
02. The Very Thought of You (5:31)
03. Let Me Off Uptown (3:35)
04. Girl Talk (5:08)
05. You Can't Lose 'Em All (4:34)
06. One Day at a Time (3:56)
07. The Rhythm of the Blues (5:54)
08. The One I Love Belongs to Somebody Else (5:26)
09. Ev'rything You Want Is Here (4:31)
10. Johnny One Note (2:29)
11. Swing Is Back in Style (2:39)
12. Love Is Nothin' But a Racket (3:28)
13. Lullaby in Rhythm (3:27)
14. Medley: When Your Lover Has Gone/The Gal That Got Away (5:01)
15. New York, New York (3:41)
16. How Little We Know (2:44)

Alto Saxophone – Gary Foster, Matt Catingub (tracks: 12)
Baritone Saxophone – Sal Lozano
Bass Trombone – Bryant Byers
Drums – Albie Berk, Dave Throckmorton*
Engineer – Leslie Ann Jones
Engineer [Assistant] – Charlie Paakkari, Dann Thompson
Flugelhorn – Bobby Shew, Maynard Ferguson
Guitar – Dennis Budimir
Leader – Maynard Ferguson
Mastered By – Paul Stubblebine
Percussion – Larry Bunker
Piano – Earl MacDonald (tracks: 1 to 6, 8 to 10, 12, 13, 15), Michael Feinstein (tracks: 7, 11, 14, 16)
Producer – Allen Sviridoff, John Burk, Maynard Ferguson
Tenor Saxophone – Dan Higgins, Jim Brenan
Trombone – Alex Iles, Reggie Watkins, Tom Garling
Trumpet – Adolfo Acosta, Bobby Shew, Brian Ploeger, Maynard Ferguson, Wayne Bergeron
Tuba – Jim Self

Michael Feinstein with The Maynard Ferguson Big Band - Big City Rhythms (1999)

Exact Audio Copy V1.3 from 2. September 2016

EAC extraction logfile from 27. May 2019, 15:34

Michael Feinstein with The Maynard Ferguson Big Band / Big City Rhythms

Used drive : HL-DT-STDVDRAM GP50NB40 Adapter: 1 ID: 0

Read mode : Secure
Utilize accurate stream : Yes
Defeat audio cache : Yes
Make use of C2 pointers : No

Read offset correction : 6
Overread into Lead-In and Lead-Out : No
Fill up missing offset samples with silence : Yes
Delete leading and trailing silent blocks : No
Null samples used in CRC calculations : Yes
Used interface : Native Win32 interface for Win NT & 2000
Gap handling : Appended to previous track

Used output format : User Defined Encoder
Selected bitrate : 1024 kBit/s
Quality : High
Add ID3 tag : No
Command line compressor : C:\Program Files\Exact Audio Copy\Flac\flac.exe
Additional command line options : -8 -V -T "ARTIST=%artist%" -T "TITLE=%title%" -T "ALBUM=%albumtitle%" -T "DATE=%year%" -T "TRACKNUMBER=%tracknr%" -T "GENRE=%genre%" -T "PERFORMER=%albuminterpret%" -T "COMPOSER=%composer%" %haslyrics%–tag-from-file=LYRICS="%lyricsfile%"%haslyrics% -T "ALBUMARTIST=%albumartist%" -T "DISCNUMBER=%cdnumber%" -T "TOTALDISCS=%totalcds%" -T "TOTALTRACKS=%numtracks%" -T "COMMENT=%comment%" %source% -o %dest%


TOC of the extracted CD

Track | Start | Length | Start sector | End sector
––––––––––––––––––––––––––––-
1 | 0:00.00 | 2:58.40 | 0 | 13389
2 | 2:58.40 | 5:31.12 | 13390 | 38226
3 | 8:29.52 | 3:34.63 | 38227 | 54339
4 | 12:04.40 | 5:08.32 | 54340 | 77471
5 | 17:12.72 | 4:34.23 | 77472 | 98044
6 | 21:47.20 | 3:55.62 | 98045 | 115731
7 | 25:43.07 | 5:54.33 | 115732 | 142314
8 | 31:37.40 | 5:26.32 | 142315 | 166796
9 | 37:03.72 | 4:30.53 | 166797 | 187099
10 | 41:34.50 | 2:28.52 | 187100 | 198251
11 | 44:03.27 | 2:38.70 | 198252 | 210171
12 | 46:42.22 | 3:27.50 | 210172 | 225746
13 | 50:09.72 | 3:26.63 | 225747 | 241259
14 | 53:36.60 | 5:00.45 | 241260 | 263804
15 | 58:37.30 | 3:40.62 | 263805 | 280366
16 | 62:18.17 | 2:43.73 | 280367 | 292664


Track 1

Filename Z:\mnt\sdb1\music to upload\[1999] Michael Feinstein with The Maynard Ferguson Big Band - Big City Rhythms\01 Close Your Eyes.wav

Pre-gap length 0:00:02.00

Peak level 96.3 %
Extraction speed 2.6 X
Track quality 100.0 %
Test CRC 3339C0A6
Copy CRC 3339C0A6
Accurately ripped (confidence 12) [EC16E2A2] (AR v2)
Copy OK

Track 2

Filename Z:\mnt\sdb1\music to upload\[1999] Michael Feinstein with The Maynard Ferguson Big Band - Big City Rhythms\02 The Very Thought Of You.wav

Peak level 97.0 %
Extraction speed 3.2 X
Track quality 100.0 %
Test CRC 47ED8550
Copy CRC 47ED8550
Accurately ripped (confidence 12) [EEF67202] (AR v2)
Copy OK

Track 3

Filename Z:\mnt\sdb1\music to upload\[1999] Michael Feinstein with The Maynard Ferguson Big Band - Big City Rhythms\03 Let Me Off Uptown.wav

Pre-gap length 0:00:01.42

Peak level 97.3 %
Extraction speed 3.3 X
Track quality 100.0 %
Test CRC 9B90EF4F
Copy CRC 9B90EF4F
Accurately ripped (confidence 12) [7BEC20F5] (AR v2)
Copy OK

Track 4

Filename Z:\mnt\sdb1\music to upload\[1999] Michael Feinstein with The Maynard Ferguson Big Band - Big City Rhythms\04 Girl Talk.wav

Peak level 97.9 %
Extraction speed 3.3 X
Track quality 99.9 %
Test CRC 9E707563
Copy CRC 9E707563
Accurately ripped (confidence 12) [673E899F] (AR v2)
Copy OK

Track 5

Filename Z:\mnt\sdb1\music to upload\[1999] Michael Feinstein with The Maynard Ferguson Big Band - Big City Rhythms\05 You Can't Lose 'Em All.wav

Peak level 97.6 %
Extraction speed 4.0 X
Track quality 100.0 %
Test CRC F5B15DAB
Copy CRC F5B15DAB
Accurately ripped (confidence 12) [EF43DBDB] (AR v2)
Copy OK

Track 6

Filename Z:\mnt\sdb1\music to upload\[1999] Michael Feinstein with The Maynard Ferguson Big Band - Big City Rhythms\06 One Day At A Time.wav

Peak level 97.1 %
Extraction speed 4.2 X
Track quality 100.0 %
Test CRC 6682A71B
Copy CRC 6682A71B
Accurately ripped (confidence 12) [D6B74975] (AR v2)
Copy OK

Track 7

Filename Z:\mnt\sdb1\music to upload\[1999] Michael Feinstein with The Maynard Ferguson Big Band - Big City Rhythms\07 The Rhythm Of The Blues.wav

Peak level 97.8 %
Extraction speed 4.6 X
Track quality 100.0 %
Test CRC A9577F8B
Copy CRC A9577F8B
Accurately ripped (confidence 12) [8785422B] (AR v2)
Copy OK

Track 8

Filename Z:\mnt\sdb1\music to upload\[1999] Michael Feinstein with The Maynard Ferguson Big Band - Big City Rhythms\08 The One I Love Belongs To Somebody Else.wav

Pre-gap length 0:00:01.48

Peak level 96.6 %
Extraction speed 4.8 X
Track quality 100.0 %
Test CRC D374AAB4
Copy CRC D374AAB4
Accurately ripped (confidence 12) [F463C260] (AR v2)
Copy OK

Track 9

Filename Z:\mnt\sdb1\music to upload\[1999] Michael Feinstein with The Maynard Ferguson Big Band - Big City Rhythms\09 Ev'rything You Want Is Here.wav

Peak level 98.6 %
Extraction speed 5.0 X
Track quality 100.0 %
Test CRC 43BDA0A1
Copy CRC 43BDA0A1
Accurately ripped (confidence 12) [47138144] (AR v2)
Copy OK

Track 10

Filename Z:\mnt\sdb1\music to upload\[1999] Michael Feinstein with The Maynard Ferguson Big Band - Big City Rhythms\10 Johnny One Note.wav

Peak level 97.2 %
Extraction speed 3.6 X
Track quality 99.9 %
Test CRC BA0FF230
Copy CRC BA0FF230
Accurately ripped (confidence 12) [74F70325] (AR v2)
Copy OK

Track 11

Filename Z:\mnt\sdb1\music to upload\[1999] Michael Feinstein with The Maynard Ferguson Big Band - Big City Rhythms\11 Swing Is Back In Style.wav

Peak level 97.0 %
Extraction speed 4.8 X
Track quality 100.0 %
Test CRC DB10AD7C
Copy CRC DB10AD7C
Accurately ripped (confidence 12) [38431DC9] (AR v2)
Copy OK

Track 12

Filename Z:\mnt\sdb1\music to upload\[1999] Michael Feinstein with The Maynard Ferguson Big Band - Big City Rhythms\12 Love Is Nuthin' But A Racket.wav

Peak level 96.5 %
Extraction speed 5.1 X
Track quality 100.0 %
Test CRC F392B429
Copy CRC F392B429
Accurately ripped (confidence 11) [CCE310D6] (AR v2)
Copy OK

Track 13

Filename Z:\mnt\sdb1\music to upload\[1999] Michael Feinstein with The Maynard Ferguson Big Band - Big City Rhythms\13 Lullaby In Rhythm.wav

Peak level 97.3 %
Extraction speed 3.7 X
Track quality 99.8 %
Test CRC 903AC881
Copy CRC 903AC881
Accurately ripped (confidence 12) [812C4876] (AR v2)
Copy OK

Track 14

Filename Z:\mnt\sdb1\music to upload\[1999] Michael Feinstein with The Maynard Ferguson Big Band - Big City Rhythms\14 When Your Lover Has Gone , Gal That Got Away.wav

Peak level 97.3 %
Extraction speed 5.6 X
Track quality 100.0 %
Test CRC 1550C761
Copy CRC 1550C761
Accurately ripped (confidence 12) [EE462BC5] (AR v2)
Copy OK

Track 15

Filename Z:\mnt\sdb1\music to upload\[1999] Michael Feinstein with The Maynard Ferguson Big Band - Big City Rhythms\15 New York, New York.wav

Peak level 95.0 %
Extraction speed 5.6 X
Track quality 100.0 %
Test CRC B5D0E5F5
Copy CRC B5D0E5F5
Accurately ripped (confidence 12) [8E2521B7] (AR v2)
Copy OK

Track 16

Filename Z:\mnt\sdb1\music to upload\[1999] Michael Feinstein with The Maynard Ferguson Big Band - Big City Rhythms\16 How Little We Know.wav

Pre-gap length 0:00:02.03

Peak level 68.5 %
Extraction speed 5.4 X
Track quality 100.0 %
Test CRC 7AA1038D
Copy CRC 7AA1038D
Accurately ripped (confidence 12) [0FCBFD9D] (AR v2)
Copy OK


All tracks accurately ripped

No errors occurred

End of status report

–– CUETools DB Plugin V2.1.6

[CTDB TOCID: WUSWNoBvqW_hUX_PNYheCB0HSmk-] found
Submit result: WUSWNoBvqW_hUX_PNYheCB0HSmk- has been confirmed
Track | CTDB Status
1 | (24/25) Accurately ripped
2 | (25/25) Accurately ripped
3 | (25/25) Accurately ripped
4 | (24/25) Accurately ripped
5 | (25/25) Accurately ripped
6 | (25/25) Accurately ripped
7 | (25/25) Accurately ripped
8 | (25/25) Accurately ripped
9 | (24/25) Accurately ripped
10 | (23/25) Accurately ripped
11 | (25/25) Accurately ripped
12 | (25/25) Accurately ripped
13 | (25/25) Accurately ripped
14 | (25/25) Accurately ripped
15 | (25/25) Accurately ripped
16 | (24/25) Accurately ripped


==== Log checksum 6D093C0CBB2F2A1FE183F6FC2D56E608393BEFCCDB49F1D7E52DBA59E9E9EE3D ====

All thanks go to the ultimasphere

More Music in My Blog
Follow My RSS Channel