Tags
Language
Tags

Michel Camilo - On Fire - Repost

Posted By: inconu
Michel Camilo - On Fire - Repost

Michel Camilo - On Fire
EAC | 291 MB | Cover | Flac + Cue + Log | Release 1989

Michel Camilo is a native of Santo Domingo, Dominican Republic. He studied for 13 years at the National Conservatory, and at the age of 16 became a member of the National Symphony Orchestra of the Dominican Republic (NSODR). He moved to New York in 1979, where he studied at Mannes College and at The Juilliard School.
Original Release Date: October 3, 1989
Label: Sony

Michel Camilo est un originaire Santo Domingo, la République dominicaine. Il a étudié pendant 13 ans au Conservatoire national et est à l'âge de 16 ans devenu un membre de l'Orchestre de Symphonie national de la République dominicaine. Il s'est rendu à New York en 1979, où il a étudié Mannes College and at The Juilliard School.

Tracks:
1. Island Stomp
2. If You KNew
3. Uptown Manhattan
4. Friends (Interlude II,Suite Sandrine)
5. Hands & Feet
6. This Way Out
7. In Love
8. …And Sammy Walked In
9. Softly, As In A Morning Sunrise
10. On Fire

Personnel:
- Michel Camilo - Piano
- Marc Johnson - Bass
- Marvin "Smitty" Smith - Drums
- Michael Bowie - Bass
- Sammy Figueroa - Conga
- Joel Rosenblatt - Drums
- Dave Weckl - Drums
Exact Audio Copy V0.99 prebeta 5 from 4. May 2009
EAC extraction logfile from 15. August 2010, 15:52

Michel Camilo / On Fire

Used drive : TSSTcorpCDDVDW SH-S203B Adapter: 0 ID: 0
Read mode : Secure
Utilize accurate stream : Yes
Defeat audio cache : No
Make use of C2 pointers : Yes

Read offset correction : 6
Overread into Lead-In and Lead-Out : No
Fill up missing offset samples with silence : Yes
Delete leading and trailing silent blocks : No
Null samples used in CRC calculations : No
Used interface : Native Win32 interface for Win NT & 2000

Used output format : User Defined Encoder
Selected bitrate : 768 kBit/s
Quality : High
Add ID3 tag : No
Command line compressor : D:\Program Files\Exact Audio Copy\FLAC\FLAC.EXE
Additional command line options : -6 -V -T "ARTIST=%a" -T "TITLE=%t" -T "ALBUM=%g" -T "DATE=%y" -T "TRACKNUMBER=%n" -T "GENRE=%m" -T "COMMENT=%e" %s -o %d


TOC of the extracted CD

Track | Start | Length | Start sector | End sector
––––––––––––––––––––––––––––-
1 | 0:00.00 | 5:21.30 | 0 | 24104
2 | 5:21.30 | 3:51.40 | 24105 | 41469
3 | 9:12.70 | 4:49.25 | 41470 | 63169
4 | 14:02.20 | 4:49.22 | 63170 | 84866
5 | 18:51.42 | 4:25.63 | 84867 | 104804
6 | 23:17.30 | 5:54.32 | 104805 | 131386
7 | 29:11.62 | 5:07.05 | 131387 | 154416
8 | 34:18.67 | 5:10.53 | 154417 | 177719
9 | 39:29.45 | 5:47.22 | 177720 | 203766
10 | 45:16.67 | 6:09.58 | 203767 | 231499


Range status and errors

Selected range

Filename D:\Documents and Settings\Administrateur\Downloads\Michel Camilo - On Fire.wav

Peak level 100.0 %
Range quality 100.0 %
Copy CRC AD62E935
Copy OK

No errors occurred


AccurateRip summary

Track 1 accurately ripped (confidence 5) [9EF9C8D9]
Track 2 accurately ripped (confidence 5) [ADB445D4]
Track 3 accurately ripped (confidence 5) [199C8339]
Track 4 accurately ripped (confidence 5) [5F20BEAB]
Track 5 accurately ripped (confidence 5) [F8983F22]
Track 6 accurately ripped (confidence 5) [27789E02]
Track 7 accurately ripped (confidence 5) [FEB629C2]
Track 8 accurately ripped (confidence 5) [2CA67AB6]
Track 9 accurately ripped (confidence 5) [CC24B794]
Track 10 accurately ripped (confidence 5) [9AE31827]

All tracks accurately ripped

End of status report

MU LINK
Pass: the @nt