Subcategories

Midnight Oil - Head Injuries (1979) [SON A 34213]

Posted By: Down_Under
Midnight Oil - Head Injuries (1979) [SON A 34213]

Midnight Oil - Head Injuries (1979) [SON A 34213]
EAC/WAV/CUE/LOG | 246 MB | EAC V 0.99 prebeta 4
Rock/ Alternative Rock

Head Injuries is the second album by Midnight Oil and was released in 1979 under the Columbia Records label. It was the last Midnight Oil album to feature bass player Andrew James, before he quit the band due to illness.

Surely, what would have to be the ' definitive ' Midnight Oil album. Their best.








Tracklisting:

1 Cold Cold Change (3:26)
2 Section Five (Bus To Bondi) (2:59)
3 Naked Flame (3:26)
4 Back On The Borderline (3:09)
5 Koala Sprint (5:09)
6 No Reaction (2:56)
7 Stand In Line (4:48)
8 Profiteers (3:44)
9 Is It Now? (4:22)






Exact Audio Copy V0.99 prebeta 4 from 23. January 2008

EAC extraction logfile from 17. February 2008, 18:41

Midnight Oil / Head Injuries

Used drive : MATSHITADVD-RAM UJ-852S Adapter: 0 ID: 0

Read mode : Secure
Utilize accurate stream : Yes
Defeat audio cache : No
Make use of C2 pointers : No

Read offset correction : 102
Overread into Lead-In and Lead-Out : No
Fill up missing offset samples with silence : Yes
Delete leading and trailing silent blocks : No
Null samples used in CRC calculations : No
Used interface : Native Win32 interface for Win NT & 2000

Used output format : Internal WAV Routines
Sample format : 44.100 Hz; 16 Bit; Stereo


TOC of the extracted CD

Track | Start | Length | Start sector | End sector
––––––––––––––––––––––––––––-
1 | 0:00.00 | 3:27.30 | 0 | 15554
2 | 3:27.30 | 3:00.10 | 15555 | 29064
3 | 6:27.40 | 3:27.37 | 29065 | 44626
4 | 9:55.02 | 3:08.33 | 44627 | 58759
5 | 13:03.35 | 5:10.10 | 58760 | 82019
6 | 18:13.45 | 2:57.27 | 82020 | 95321
7 | 21:10.72 | 4:48.25 | 95322 | 116946
8 | 25:59.22 | 3:45.30 | 116947 | 133851
9 | 29:44.52 | 4:22.15 | 133852 | 153516


Range status and errors

Selected range

Filename C:\Documents and Settings\User\My Documents\Lossless Music Projects\Midnight Oil - Head Injuries [Lossless]\Midnight Oil - Head Injuries [Lossless].wav

Peak level 100.0 %
Range quality 100.0 %
Copy CRC AC7D5326
Copy OK

No errors occurred


AccurateRip summary

Track 1 not present in database
Track 2 not present in database
Track 3 not present in database
Track 4 not present in database
Track 5 not present in database
Track 6 not present in database
Track 7 not present in database
Track 8 not present in database
Track 9 not present in database

None of the tracks are present in the AccurateRip database

End of status report