Subcategories

Midnight Oil - Midnight Oil (1978) [CBS450902 2]

Posted By: Down_Under
Midnight Oil - Midnight Oil (1978) [CBS450902 2]

Midnight Oil - Midnight Oil (1978) [CBS450902 2]
EAC/WAV/CUE/LOG | 241 MB | EAC V 0.99 prebeta 4
Rock/ Alternative Rock

Midnight Oil is the self-titled debut album by Australian band Midnight Oil that was recorded in 1977 and released in 1978 on the band's independent Sprint Music label. The album was later distributed by CBS Records.
When the album was originally released, it had a blue cover, however, years later, the CD release was issued with a black cover.
Because of the original blue cover, it is often referred to as the "blue album" or "the Blue Meanie."

Not by any means their finest album, but an essential component to any ' Oils ' collection all the same.










Tracklisting:

1 Powderworks (5:35)
2 Head Over Heels (4:01)
3 Dust (3:17)
4 Used And Abused (3:10)
5 Surfing With A Spoon (5:22)
6 Run By Night (3:52)
7 Nothing Lost – Nothing Gained (8:23)





Exact Audio Copy V0.99 prebeta 4 from 23. January 2008

EAC extraction logfile from 6. December 2008, 22:47

Midnight Oil / Midnight Oil

Used drive : MATSHITADVD-RAM UJ-852S Adapter: 0 ID: 0

Read mode : Secure
Utilize accurate stream : Yes
Defeat audio cache : No
Make use of C2 pointers : No

Read offset correction : 102
Overread into Lead-In and Lead-Out : No
Fill up missing offset samples with silence : Yes
Delete leading and trailing silent blocks : No
Null samples used in CRC calculations : No
Used interface : Native Win32 interface for Win NT & 2000

Used output format : Internal WAV Routines
Sample format : 44.100 Hz; 16 Bit; Stereo


TOC of the extracted CD

Track | Start | Length | Start sector | End sector
––––––––––––––––––––––––––––-
1 | 0:00.00 | 5:35.12 | 0 | 25136
2 | 5:35.12 | 4:05.50 | 25137 | 43561
3 | 9:40.62 | 3:20.25 | 43562 | 58586
4 | 13:01.12 | 3:12.13 | 58587 | 72999
5 | 16:13.25 | 5:22.45 | 73000 | 97194
6 | 21:35.70 | 3:57.42 | 97195 | 115011
7 | 25:33.37 | 8:28.33 | 115012 | 153144


Range status and errors

Selected range

Filename C:\Documents and Settings\User\My Documents\Lossless Music Projects\Midnight Oil - Midnight Oil [Lossless]\Midnight Oil - Midnight Oil.wav

Peak level 100.0 %
Range quality 99.9 %
Copy CRC 134AEA8B
Copy OK

No errors occurred


AccurateRip summary

Track 1 accurately ripped (confidence 2) [E8D3B911]
Track 2 accurately ripped (confidence 2) [657DAC9B]
Track 3 accurately ripped (confidence 2) [57B75BDC]
Track 4 accurately ripped (confidence 2) [76511303]
Track 5 accurately ripped (confidence 2) [F8C57787]
Track 6 accurately ripped (confidence 2) [D06BEB4F]
Track 7 accurately ripped (confidence 2) [49A0F5DC]

All tracks accurately ripped

End of status report