Subcategories

Mike + The Mechanics - Out of the Blue (Deluxe Edition) (2019)

Posted By: delpotro
Mike + The Mechanics - Out of the Blue (Deluxe Edition) (2019)

Mike + The Mechanics - Out of the Blue (Deluxe Edition) (2019)
EAC Rip | FLAC (tracks+log+.cue) - 570 Mb | MP3 CBR 320 kbps - 232 Mb | Scans included | 01:16:51
Pop Rock | Label: BMG Rights Management

Mike & The Mechanics have announced that they’ll release a new album this spring. It’s titled Out Of The Blue and it’ll launch on April 5 on CD, Deluxe CD, LP and on digital and streaming platforms. The album will feature re-workings of some of the band’s best-loved tracks, including The Living Years and Over My Shoulder, along with three brand new songs: One Way, What Would You Do and the new single Out Of The Blue.

The Deluxe CD will also include six acoustic tracks: Don’t Know What Came Over Me, The Best Is Yet To Come, The Living Years, Beggar On A Beach Of Gold, Another Cup Of Coffee and Over My Shoulder.

Mike Rutherford explains: “Having toured with the Mechanics over the last 10 years, I have heard the old songs change a bit each year with Andrew Roachford and Tim Howar singing and the same band playing.

“In some cases they have been extended and developed, so it seemed a good idea to record these versions in the studio.

“Anyone who has seen us live will, I’m sure, like to hear the old ones in this form as they show how the two singers work so well together – especially on a song like Get Up, which has become a double lead vocal.”

Rutherford adds: “Recording the unplugged version was like in the old days – down the stairs into a basement studio not 50 yards away from Trident Studios where we recorded Genesis’ second and third albums.

“We recorded these live and Tim and Andrew led the songs with great vocal performances, and we mixed it as we recorded it like in the past. No wonder albums took a maximum of three weeks to complete then!

“We have also written and recorded three new songs which show the Mechanics next stage – I hope!”
Tracklist:
1. One Way (04:00)
2. Out of the Blue (03:38)
3. What Would You Do (03:06)
4. The Living Years (2019 Version) (06:24)
5. Beggar on a Beach of Gold (2019 Version) (04:09)
6. Get Up (2019 Version) (04:20)
7. Another Cup of Coffee (2019 Version) (04:25)
8. All I Need Is a Miracle (2019 Version) (06:38)
9. Silent Running (2019 Version) (04:55)
10. Over My Shoulder (2019 Version) (04:56)
11. Word of Mouth (2019 Version) (04:03)
12. Don't Know What Came Over Me (Acoustic) (03:59)
13. The Best Is Yet to Come (Acoustic) (04:19)
14. The Living Years (Acoustic) (05:32)
15. Beggar on a Beach of Gold (Acoustic) (03:54)
16. Another Cup of Coffee (Acoustic) (04:39)
17. Over My Shoulder (Acoustic) (03:45)

Exact Audio Copy V1.3 from 2. September 2016

EAC extraction logfile from 18. August 2019, 17:20

Mike + the Mechanics / Out of the Blue

Used drive : PLEXTOR PX-891SAF Adapter: 1 ID: 0

Read mode : Secure
Utilize accurate stream : Yes
Defeat audio cache : Yes
Make use of C2 pointers : No

Read offset correction : 6
Overread into Lead-In and Lead-Out : No
Fill up missing offset samples with silence : Yes
Delete leading and trailing silent blocks : No
Null samples used in CRC calculations : Yes
Used interface : Native Win32 interface for Win NT & 2000
Gap handling : Appended to previous track

Used output format : User Defined Encoder
Selected bitrate : 1024 kBit/s
Quality : High
Add ID3 tag : No
Command line compressor : C:\Program Files (x86)\Exact Audio Copy\Flac\flac.exe
Additional command line options : -8 -V -T "ARTIST=%artist%" -T "TITLE=%title%" -T "ALBUM=%albumtitle%" -T "DATE=%year%" -T "TRACKNUMBER=%tracknr%" -T "GENRE=%genre%" -T "PERFORMER=%albuminterpret%" -T "COMPOSER=%composer%" %haslyrics%–tag-from-file=LYRICS="%lyricsfile%"%haslyrics% -T "ALBUMARTIST=%albumartist%" -T "DISCNUMBER=%cdnumber%" -T "TOTALDISCS=%totalcds%" -T "TOTALTRACKS=%numtracks%" -T "COMMENT=%comment%" %source% -o %dest%


TOC of the extracted CD

Track | Start | Length | Start sector | End sector
––––––––––––––––––––––––––––-
1 | 0:00.00 | 4:00.28 | 0 | 18027
2 | 4:00.28 | 3:38.19 | 18028 | 34396
3 | 7:38.47 | 3:06.07 | 34397 | 48353
4 | 10:44.54 | 6:24.71 | 48354 | 77224
5 | 17:09.50 | 4:09.65 | 77225 | 95964
6 | 21:19.40 | 4:20.60 | 95965 | 115524
7 | 25:40.25 | 4:25.40 | 115525 | 135439
8 | 30:05.65 | 6:38.28 | 135440 | 165317
9 | 36:44.18 | 4:55.53 | 165318 | 187495
10 | 41:39.71 | 4:56.53 | 187496 | 209748
11 | 46:36.49 | 4:04.09 | 209749 | 228057


Track 1

Filename D:\#New Wav + flac\#cdr\Mike & The Mechanics - Out Of The Blue\cd 1\01. Mike + the Mechanics - One Way.wav

Pre-gap length 0:00:02.00

Peak level 100.0 %
Extraction speed 4.2 X
Track quality 99.9 %
Test CRC C1D58A0B
Copy CRC C1D58A0B
Accurately ripped (confidence 8) [18E35109] (AR v2)
Copy OK

Track 2

Filename D:\#New Wav + flac\#cdr\Mike & The Mechanics - Out Of The Blue\cd 1\02. Mike + the Mechanics - Out of the Blue.wav

Peak level 100.0 %
Extraction speed 5.4 X
Track quality 100.0 %
Test CRC 68F9F99B
Copy CRC 68F9F99B
Accurately ripped (confidence 8) [086A6255] (AR v2)
Copy OK

Track 3

Filename D:\#New Wav + flac\#cdr\Mike & The Mechanics - Out Of The Blue\cd 1\03. Mike + the Mechanics - What Would You Do.wav

Peak level 100.0 %
Extraction speed 5.7 X
Track quality 100.0 %
Test CRC 8B1E1D45
Copy CRC 8B1E1D45
Accurately ripped (confidence 8) [4214BDB6] (AR v2)
Copy OK

Track 4

Filename D:\#New Wav + flac\#cdr\Mike & The Mechanics - Out Of The Blue\cd 1\04. Mike + the Mechanics - The Living Years.wav

Peak level 100.0 %
Extraction speed 6.8 X
Track quality 100.0 %
Test CRC C7377641
Copy CRC C7377641
Accurately ripped (confidence 8) [847C09B4] (AR v2)
Copy OK

Track 5

Filename D:\#New Wav + flac\#cdr\Mike & The Mechanics - Out Of The Blue\cd 1\05. Mike + the Mechanics - Beggar on a Beach of Gold.wav

Peak level 100.0 %
Extraction speed 6.9 X
Track quality 100.0 %
Test CRC 4A6E8AAB
Copy CRC 4A6E8AAB
Accurately ripped (confidence 8) [942156FC] (AR v2)
Copy OK

Track 6

Filename D:\#New Wav + flac\#cdr\Mike & The Mechanics - Out Of The Blue\cd 1\06. Mike + the Mechanics - Get Up.wav

Peak level 100.0 %
Extraction speed 7.3 X
Track quality 100.0 %
Test CRC BFA847BF
Copy CRC BFA847BF
Accurately ripped (confidence 8) [FDC7AD50] (AR v2)
Copy OK

Track 7

Filename D:\#New Wav + flac\#cdr\Mike & The Mechanics - Out Of The Blue\cd 1\07. Mike + the Mechanics - Another Cup of Coffee.wav

Peak level 100.0 %
Extraction speed 7.8 X
Track quality 100.0 %
Test CRC CD7A8F2D
Copy CRC CD7A8F2D
Accurately ripped (confidence 8) [CE9A89D2] (AR v2)
Copy OK

Track 8

Filename D:\#New Wav + flac\#cdr\Mike & The Mechanics - Out Of The Blue\cd 1\08. Mike + the Mechanics - All I Need Is a Miracle.wav

Peak level 100.0 %
Extraction speed 7.6 X
Track quality 99.9 %
Test CRC 318769AA
Copy CRC 318769AA
Accurately ripped (confidence 8) [294798BF] (AR v2)
Copy OK

Track 9

Filename D:\#New Wav + flac\#cdr\Mike & The Mechanics - Out Of The Blue\cd 1\09. Mike + the Mechanics - Silent Running.wav

Peak level 100.0 %
Extraction speed 8.8 X
Track quality 100.0 %
Test CRC F5E1ECD7
Copy CRC F5E1ECD7
Accurately ripped (confidence 8) [1CEF96FC] (AR v2)
Copy OK

Track 10

Filename D:\#New Wav + flac\#cdr\Mike & The Mechanics - Out Of The Blue\cd 1\10. Mike + the Mechanics - Over My Shoulder.wav

Peak level 100.0 %
Extraction speed 9.2 X
Track quality 100.0 %
Test CRC BB7870BC
Copy CRC BB7870BC
Accurately ripped (confidence 8) [F792E1C2] (AR v2)
Copy OK

Track 11

Filename D:\#New Wav + flac\#cdr\Mike & The Mechanics - Out Of The Blue\cd 1\11. Mike + the Mechanics - Word of Mouth.wav

Peak level 100.0 %
Extraction speed 9.2 X
Track quality 100.0 %
Test CRC BC9BECEA
Copy CRC BC9BECEA
Accurately ripped (confidence 8) [BD39C00B] (AR v2)
Copy OK


All tracks accurately ripped

No errors occurred

End of status report

–– CUETools DB Plugin V2.1.6

[CTDB TOCID: z1txXgE1jq6mB5KPDYPH2nZ4HDA-] found
Submit result: z1txXgE1jq6mB5KPDYPH2nZ4HDA- has been confirmed
Track | CTDB Status
1 | (81/81) Accurately ripped
2 | (81/81) Accurately ripped
3 | (81/81) Accurately ripped
4 | (81/81) Accurately ripped
5 | (81/81) Accurately ripped
6 | (81/81) Accurately ripped
7 | (81/81) Accurately ripped
8 | (81/81) Accurately ripped
9 | (81/81) Accurately ripped
10 | (81/81) Accurately ripped
11 | (81/81) Accurately ripped


==== Log checksum CCA3724B32BA9FAB502610B5D7D7A258A13CA0129073A91282D3808A24C5EDC8 ====

––––––––––––––––––––––––––––––

Exact Audio Copy V1.3 from 2. September 2016

EAC extraction logfile from 18. August 2019, 17:20

Mike + the Mechanics / Out of the Blue

Used drive : PLEXTOR PX-891SAF Adapter: 1 ID: 0

Read mode : Secure
Utilize accurate stream : Yes
Defeat audio cache : Yes
Make use of C2 pointers : No

Read offset correction : 6
Overread into Lead-In and Lead-Out : No
Fill up missing offset samples with silence : Yes
Delete leading and trailing silent blocks : No
Null samples used in CRC calculations : Yes
Used interface : Native Win32 interface for Win NT & 2000
Gap handling : Appended to previous track

Used output format : User Defined Encoder
Selected bitrate : 1024 kBit/s
Quality : High
Add ID3 tag : No
Command line compressor : C:\Program Files (x86)\Exact Audio Copy\Flac\flac.exe
Additional command line options : -8 -V -T "ARTIST=%artist%" -T "TITLE=%title%" -T "ALBUM=%albumtitle%" -T "DATE=%year%" -T "TRACKNUMBER=%tracknr%" -T "GENRE=%genre%" -T "PERFORMER=%albuminterpret%" -T "COMPOSER=%composer%" %haslyrics%–tag-from-file=LYRICS="%lyricsfile%"%haslyrics% -T "ALBUMARTIST=%albumartist%" -T "DISCNUMBER=%cdnumber%" -T "TOTALDISCS=%totalcds%" -T "TOTALTRACKS=%numtracks%" -T "COMMENT=%comment%" %source% -o %dest%


TOC of the extracted CD

Track | Start | Length | Start sector | End sector
––––––––––––––––––––––––––––-
1 | 0:00.00 | 4:00.28 | 0 | 18027
2 | 4:00.28 | 3:38.19 | 18028 | 34396
3 | 7:38.47 | 3:06.07 | 34397 | 48353
4 | 10:44.54 | 6:24.71 | 48354 | 77224
5 | 17:09.50 | 4:09.65 | 77225 | 95964
6 | 21:19.40 | 4:20.60 | 95965 | 115524
7 | 25:40.25 | 4:25.40 | 115525 | 135439
8 | 30:05.65 | 6:38.28 | 135440 | 165317
9 | 36:44.18 | 4:55.53 | 165318 | 187495
10 | 41:39.71 | 4:56.53 | 187496 | 209748
11 | 46:36.49 | 4:04.09 | 209749 | 228057


Track 1

Filename D:\#New Wav + flac\#cdr\Mike & The Mechanics - Out Of The Blue\cd 1\01. Mike + the Mechanics - One Way.wav

Pre-gap length 0:00:02.00

Peak level 100.0 %
Extraction speed 4.2 X
Track quality 99.9 %
Test CRC C1D58A0B
Copy CRC C1D58A0B
Accurately ripped (confidence 8) [18E35109] (AR v2)
Copy OK

Track 2

Filename D:\#New Wav + flac\#cdr\Mike & The Mechanics - Out Of The Blue\cd 1\02. Mike + the Mechanics - Out of the Blue.wav

Peak level 100.0 %
Extraction speed 5.4 X
Track quality 100.0 %
Test CRC 68F9F99B
Copy CRC 68F9F99B
Accurately ripped (confidence 8) [086A6255] (AR v2)
Copy OK

Track 3

Filename D:\#New Wav + flac\#cdr\Mike & The Mechanics - Out Of The Blue\cd 1\03. Mike + the Mechanics - What Would You Do.wav

Peak level 100.0 %
Extraction speed 5.7 X
Track quality 100.0 %
Test CRC 8B1E1D45
Copy CRC 8B1E1D45
Accurately ripped (confidence 8) [4214BDB6] (AR v2)
Copy OK

Track 4

Filename D:\#New Wav + flac\#cdr\Mike & The Mechanics - Out Of The Blue\cd 1\04. Mike + the Mechanics - The Living Years.wav

Peak level 100.0 %
Extraction speed 6.8 X
Track quality 100.0 %
Test CRC C7377641
Copy CRC C7377641
Accurately ripped (confidence 8) [847C09B4] (AR v2)
Copy OK

Track 5

Filename D:\#New Wav + flac\#cdr\Mike & The Mechanics - Out Of The Blue\cd 1\05. Mike + the Mechanics - Beggar on a Beach of Gold.wav

Peak level 100.0 %
Extraction speed 6.9 X
Track quality 100.0 %
Test CRC 4A6E8AAB
Copy CRC 4A6E8AAB
Accurately ripped (confidence 8) [942156FC] (AR v2)
Copy OK

Track 6

Filename D:\#New Wav + flac\#cdr\Mike & The Mechanics - Out Of The Blue\cd 1\06. Mike + the Mechanics - Get Up.wav

Peak level 100.0 %
Extraction speed 7.3 X
Track quality 100.0 %
Test CRC BFA847BF
Copy CRC BFA847BF
Accurately ripped (confidence 8) [FDC7AD50] (AR v2)
Copy OK

Track 7

Filename D:\#New Wav + flac\#cdr\Mike & The Mechanics - Out Of The Blue\cd 1\07. Mike + the Mechanics - Another Cup of Coffee.wav

Peak level 100.0 %
Extraction speed 7.8 X
Track quality 100.0 %
Test CRC CD7A8F2D
Copy CRC CD7A8F2D
Accurately ripped (confidence 8) [CE9A89D2] (AR v2)
Copy OK

Track 8

Filename D:\#New Wav + flac\#cdr\Mike & The Mechanics - Out Of The Blue\cd 1\08. Mike + the Mechanics - All I Need Is a Miracle.wav

Peak level 100.0 %
Extraction speed 7.6 X
Track quality 99.9 %
Test CRC 318769AA
Copy CRC 318769AA
Accurately ripped (confidence 8) [294798BF] (AR v2)
Copy OK

Track 9

Filename D:\#New Wav + flac\#cdr\Mike & The Mechanics - Out Of The Blue\cd 1\09. Mike + the Mechanics - Silent Running.wav

Peak level 100.0 %
Extraction speed 8.8 X
Track quality 100.0 %
Test CRC F5E1ECD7
Copy CRC F5E1ECD7
Accurately ripped (confidence 8) [1CEF96FC] (AR v2)
Copy OK

Track 10

Filename D:\#New Wav + flac\#cdr\Mike & The Mechanics - Out Of The Blue\cd 1\10. Mike + the Mechanics - Over My Shoulder.wav

Peak level 100.0 %
Extraction speed 9.2 X
Track quality 100.0 %
Test CRC BB7870BC
Copy CRC BB7870BC
Accurately ripped (confidence 8) [F792E1C2] (AR v2)
Copy OK

Track 11

Filename D:\#New Wav + flac\#cdr\Mike & The Mechanics - Out Of The Blue\cd 1\11. Mike + the Mechanics - Word of Mouth.wav

Peak level 100.0 %
Extraction speed 9.2 X
Track quality 100.0 %
Test CRC BC9BECEA
Copy CRC BC9BECEA
Accurately ripped (confidence 8) [BD39C00B] (AR v2)
Copy OK


All tracks accurately ripped

No errors occurred

End of status report

–– CUETools DB Plugin V2.1.6

[CTDB TOCID: z1txXgE1jq6mB5KPDYPH2nZ4HDA-] found
Submit result: z1txXgE1jq6mB5KPDYPH2nZ4HDA- has been confirmed
Track | CTDB Status
1 | (81/81) Accurately ripped
2 | (81/81) Accurately ripped
3 | (81/81) Accurately ripped
4 | (81/81) Accurately ripped
5 | (81/81) Accurately ripped
6 | (81/81) Accurately ripped
7 | (81/81) Accurately ripped
8 | (81/81) Accurately ripped
9 | (81/81) Accurately ripped
10 | (81/81) Accurately ripped
11 | (81/81) Accurately ripped


==== Log checksum CCA3724B32BA9FAB502610B5D7D7A258A13CA0129073A91282D3808A24C5EDC8 ====
Exact Audio Copy V1.3 from 2. September 2016

EAC extraction logfile from 18. August 2019, 17:31

Mike + the Mechanics / Out of the Blue

Used drive : PLEXTOR PX-891SAF Adapter: 1 ID: 0

Read mode : Secure
Utilize accurate stream : Yes
Defeat audio cache : Yes
Make use of C2 pointers : No

Read offset correction : 6
Overread into Lead-In and Lead-Out : No
Fill up missing offset samples with silence : Yes
Delete leading and trailing silent blocks : No
Null samples used in CRC calculations : Yes
Used interface : Native Win32 interface for Win NT & 2000
Gap handling : Appended to previous track

Used output format : User Defined Encoder
Selected bitrate : 1024 kBit/s
Quality : High
Add ID3 tag : No
Command line compressor : C:\Program Files (x86)\Exact Audio Copy\Flac\flac.exe
Additional command line options : -8 -V -T "ARTIST=%artist%" -T "TITLE=%title%" -T "ALBUM=%albumtitle%" -T "DATE=%year%" -T "TRACKNUMBER=%tracknr%" -T "GENRE=%genre%" -T "PERFORMER=%albuminterpret%" -T "COMPOSER=%composer%" %haslyrics%–tag-from-file=LYRICS="%lyricsfile%"%haslyrics% -T "ALBUMARTIST=%albumartist%" -T "DISCNUMBER=%cdnumber%" -T "TOTALDISCS=%totalcds%" -T "TOTALTRACKS=%numtracks%" -T "COMMENT=%comment%" %source% -o %dest%


TOC of the extracted CD

Track | Start | Length | Start sector | End sector
––––––––––––––––––––––––––––-
1 | 0:00.00 | 3:59.38 | 0 | 17962
2 | 3:59.38 | 4:19.42 | 17963 | 37429
3 | 8:19.05 | 5:32.05 | 37430 | 62334
4 | 13:51.10 | 3:54.10 | 62335 | 79894
5 | 17:45.20 | 4:39.36 | 79895 | 100855
6 | 22:24.56 | 3:45.56 | 100856 | 117786


Track 1

Filename D:\#New Wav + flac\#cdr\Mike & The Mechanics - Out Of The Blue\cd 2 - acoustic tracks\01. Mike + the Mechanics - Don’t Know What Came Over Me.wav

Pre-gap length 0:00:02.00

Peak level 99.7 %
Extraction speed 5.0 X
Track quality 100.0 %
Test CRC 311BCAC3
Copy CRC 311BCAC3
Accurately ripped (confidence 5) [BF7C4009] (AR v2)
Copy OK

Track 2

Filename D:\#New Wav + flac\#cdr\Mike & The Mechanics - Out Of The Blue\cd 2 - acoustic tracks\02. Mike + the Mechanics - The Best Is Yet to Come.wav

Peak level 100.0 %
Extraction speed 5.6 X
Track quality 100.0 %
Test CRC 0D598640
Copy CRC 0D598640
Accurately ripped (confidence 5) [CE1CA2EC] (AR v2)
Copy OK

Track 3

Filename D:\#New Wav + flac\#cdr\Mike & The Mechanics - Out Of The Blue\cd 2 - acoustic tracks\03. Mike + the Mechanics - The Living Years.wav

Peak level 100.0 %
Extraction speed 6.4 X
Track quality 100.0 %
Test CRC 94959A61
Copy CRC 94959A61
Accurately ripped (confidence 5) [41F208F3] (AR v2)
Copy OK

Track 4

Filename D:\#New Wav + flac\#cdr\Mike & The Mechanics - Out Of The Blue\cd 2 - acoustic tracks\04. Mike + the Mechanics - Beggar on a Beach of Gold.wav

Peak level 100.0 %
Extraction speed 6.6 X
Track quality 100.0 %
Test CRC 9D7BB588
Copy CRC 9D7BB588
Accurately ripped (confidence 5) [15453ADB] (AR v2)
Copy OK

Track 5

Filename D:\#New Wav + flac\#cdr\Mike & The Mechanics - Out Of The Blue\cd 2 - acoustic tracks\05. Mike + the Mechanics - Another Cup of Coffee.wav

Peak level 100.0 %
Extraction speed 7.1 X
Track quality 100.0 %
Test CRC 2761571E
Copy CRC 2761571E
Accurately ripped (confidence 5) [7CDD1440] (AR v2)
Copy OK

Track 6

Filename D:\#New Wav + flac\#cdr\Mike & The Mechanics - Out Of The Blue\cd 2 - acoustic tracks\06. Mike + the Mechanics - Over My Shoulder.wav

Peak level 100.0 %
Extraction speed 6.1 X
Track quality 99.9 %
Test CRC B1591A2D
Copy CRC B1591A2D
Accurately ripped (confidence 5) [3CF33C30] (AR v2)
Copy OK


All tracks accurately ripped

No errors occurred

End of status report

–– CUETools DB Plugin V2.1.6

[CTDB TOCID: tZh7NMFK5DLNLU0fiun1QFLp9As-] found
Submit result: tZh7NMFK5DLNLU0fiun1QFLp9As- has been confirmed
Track | CTDB Status
1 | (42/42) Accurately ripped
2 | (42/42) Accurately ripped
3 | (42/42) Accurately ripped
4 | (42/42) Accurately ripped
5 | (42/42) Accurately ripped
6 | (42/42) Accurately ripped


==== Log checksum FE88757C863799E985F77BA34306805791378537ECD372D2E5FC4DB6C21E123B ====

––––––––––––––––––––––––––––––

Exact Audio Copy V1.3 from 2. September 2016

EAC extraction logfile from 18. August 2019, 17:31

Mike + the Mechanics / Out of the Blue

Used drive : PLEXTOR PX-891SAF Adapter: 1 ID: 0

Read mode : Secure
Utilize accurate stream : Yes
Defeat audio cache : Yes
Make use of C2 pointers : No

Read offset correction : 6
Overread into Lead-In and Lead-Out : No
Fill up missing offset samples with silence : Yes
Delete leading and trailing silent blocks : No
Null samples used in CRC calculations : Yes
Used interface : Native Win32 interface for Win NT & 2000
Gap handling : Appended to previous track

Used output format : User Defined Encoder
Selected bitrate : 1024 kBit/s
Quality : High
Add ID3 tag : No
Command line compressor : C:\Program Files (x86)\Exact Audio Copy\Flac\flac.exe
Additional command line options : -8 -V -T "ARTIST=%artist%" -T "TITLE=%title%" -T "ALBUM=%albumtitle%" -T "DATE=%year%" -T "TRACKNUMBER=%tracknr%" -T "GENRE=%genre%" -T "PERFORMER=%albuminterpret%" -T "COMPOSER=%composer%" %haslyrics%–tag-from-file=LYRICS="%lyricsfile%"%haslyrics% -T "ALBUMARTIST=%albumartist%" -T "DISCNUMBER=%cdnumber%" -T "TOTALDISCS=%totalcds%" -T "TOTALTRACKS=%numtracks%" -T "COMMENT=%comment%" %source% -o %dest%


TOC of the extracted CD

Track | Start | Length | Start sector | End sector
––––––––––––––––––––––––––––-
1 | 0:00.00 | 3:59.38 | 0 | 17962
2 | 3:59.38 | 4:19.42 | 17963 | 37429
3 | 8:19.05 | 5:32.05 | 37430 | 62334
4 | 13:51.10 | 3:54.10 | 62335 | 79894
5 | 17:45.20 | 4:39.36 | 79895 | 100855
6 | 22:24.56 | 3:45.56 | 100856 | 117786


Track 1

Filename D:\#New Wav + flac\#cdr\Mike & The Mechanics - Out Of The Blue\cd 2 - acoustic tracks\01. Mike + the Mechanics - Don’t Know What Came Over Me.wav

Pre-gap length 0:00:02.00

Peak level 99.7 %
Extraction speed 5.0 X
Track quality 100.0 %
Test CRC 311BCAC3
Copy CRC 311BCAC3
Accurately ripped (confidence 5) [BF7C4009] (AR v2)
Copy OK

Track 2

Filename D:\#New Wav + flac\#cdr\Mike & The Mechanics - Out Of The Blue\cd 2 - acoustic tracks\02. Mike + the Mechanics - The Best Is Yet to Come.wav

Peak level 100.0 %
Extraction speed 5.6 X
Track quality 100.0 %
Test CRC 0D598640
Copy CRC 0D598640
Accurately ripped (confidence 5) [CE1CA2EC] (AR v2)
Copy OK

Track 3

Filename D:\#New Wav + flac\#cdr\Mike & The Mechanics - Out Of The Blue\cd 2 - acoustic tracks\03. Mike + the Mechanics - The Living Years.wav

Peak level 100.0 %
Extraction speed 6.4 X
Track quality 100.0 %
Test CRC 94959A61
Copy CRC 94959A61
Accurately ripped (confidence 5) [41F208F3] (AR v2)
Copy OK

Track 4

Filename D:\#New Wav + flac\#cdr\Mike & The Mechanics - Out Of The Blue\cd 2 - acoustic tracks\04. Mike + the Mechanics - Beggar on a Beach of Gold.wav

Peak level 100.0 %
Extraction speed 6.6 X
Track quality 100.0 %
Test CRC 9D7BB588
Copy CRC 9D7BB588
Accurately ripped (confidence 5) [15453ADB] (AR v2)
Copy OK

Track 5

Filename D:\#New Wav + flac\#cdr\Mike & The Mechanics - Out Of The Blue\cd 2 - acoustic tracks\05. Mike + the Mechanics - Another Cup of Coffee.wav

Peak level 100.0 %
Extraction speed 7.1 X
Track quality 100.0 %
Test CRC 2761571E
Copy CRC 2761571E
Accurately ripped (confidence 5) [7CDD1440] (AR v2)
Copy OK

Track 6

Filename D:\#New Wav + flac\#cdr\Mike & The Mechanics - Out Of The Blue\cd 2 - acoustic tracks\06. Mike + the Mechanics - Over My Shoulder.wav

Peak level 100.0 %
Extraction speed 6.1 X
Track quality 99.9 %
Test CRC B1591A2D
Copy CRC B1591A2D
Accurately ripped (confidence 5) [3CF33C30] (AR v2)
Copy OK


All tracks accurately ripped

No errors occurred

End of status report

–– CUETools DB Plugin V2.1.6

[CTDB TOCID: tZh7NMFK5DLNLU0fiun1QFLp9As-] found
Submit result: tZh7NMFK5DLNLU0fiun1QFLp9As- has been confirmed
Track | CTDB Status
1 | (42/42) Accurately ripped
2 | (42/42) Accurately ripped
3 | (42/42) Accurately ripped
4 | (42/42) Accurately ripped
5 | (42/42) Accurately ripped
6 | (42/42) Accurately ripped


==== Log checksum FE88757C863799E985F77BA34306805791378537ECD372D2E5FC4DB6C21E123B ====

Thanks to the Original ripper !