Tags
Language
Tags

Mike Tramp - Second Time Around (2020)

Posted By: delpotro
Mike Tramp - Second Time Around (2020)

Mike Tramp - Second Time Around (2020)
XLD Rip | FLAC (tracks+log+.cue) | 00:49:26 | 349 Mb
Hard Rock | Label: Target Records

May the 1st will see the release of “Second Time Around“, the new album from MIKE TRAMP. And while the ex-White Lion and Freak of Nature frontman is no rookie to releases in his own name, this time he does so with a special feeling.

“I’ve lost count of how many times I’ve been asked. That if I could do it all over again, what would I change? It’s a tricky question and for an artist, sometimes an unfair one“, he says. “Because when we looked back, hindsight is always 20/20 and we know it all, and familiar with the Monday morning quarterback scenario, where everyone knows where he should have thrown the ball or kicked it. What the hell did I know when I walked into the recording studio the first time in 1976 to record my first album? The answer is nothing, and I can honestly admit, it didn’t really change 10 years or 20 years later on. With every album I recorded or every tour I finished I always came home with so much more knowledge than when I started it, and always wished I’d known it all at the beginning“.

“I am proud of these songs. They are like my other albums and 100% representation of who Mike Tramp is. If aliens came down to earth and happened to pick up “Second Time Around” as the first Mike Tramp album they heard, I would be truly proud and confident that all of my DNA, would be in this album“.

“Second Time Around” will be released May 1st 2020 worldwide through Target Records containing ten songs (including the first single “The Road“, which the official video can be seen below). The words and music were written by Mike Tramp and the album was produced by Soren Andersen & Mike Tramp. Mixing done by Peter Mannson, Mir Studio, Stockholm, Sweden. Mastering by Henrik West at Medley Studio in Copenhagen, Denmark. Recordings were done by Soren Andersen, Medley Studio, Copenhagen, Denmark, with additional recording done by Mike Tramp many places & more.
Tracklist:
1. All of My Life (06:49)
2. The Road (04:46)
3. Anymore (04:57)
4. Come On (03:58)
5. Between Good and Bad (04:02)
6. Lay Down Your Guns (06:05)
7. Highway (04:57)
8. No Tomorrow (04:38)
9. Back to You (04:27)
10. When She Cries (04:43)

X Lossless Decoder version 20191004 (152.0)

XLD extraction logfile from 2020-05-18 16:25:10 +0100

Mike Tramp / Second Time Around

Used drive : MATSHITA BD-MLT UJ240AF (revision 1.00)
Media type : Pressed CD

Ripper mode : XLD Secure Ripper
Disable audio cache : OK for the drive with a cache less than 1375KiB
Make use of C2 pointers : NO
Read offset correction : 103
Max retry count : 25
Gap status : Analyzed, Appended (except HTOA)

TOC of the extracted CD
Track | Start | Length | Start sector | End sector
––––––––––––––––––––––––––––-
1 | 00:00:00 | 06:49:35 | 0 | 30709
2 | 06:49:35 | 04:46:18 | 30710 | 52177
3 | 11:35:53 | 04:57:10 | 52178 | 74462
4 | 16:32:63 | 03:58:74 | 74463 | 92386
5 | 20:31:62 | 04:02:56 | 92387 | 110592
6 | 24:34:43 | 06:05:38 | 110593 | 138005
7 | 30:40:06 | 04:57:28 | 138006 | 160308
8 | 35:37:34 | 04:38:48 | 160309 | 181206
9 | 40:16:07 | 04:27:19 | 181207 | 201250
10 | 44:43:26 | 04:43:48 | 201251 | 222523

AccurateRip Summary
Disc not found in AccurateRip DB.

All Tracks
Album gain : -7.16 dB
Peak : 0.853027
Statistics
Read error : 0
Jitter error (maybe fixed) : 0
Retry sector count : 0
Damaged sector count : 0

Track 01
Filename : /Users/imac/Working Folder/XLD/Mike Tramp - Second Time Around (2020) [FLAC]/01 - Mike Tramp - All of My Life.flac
/Users/imac/Working Folder/XLD/Mike Tramp - Second Time Around (2020) [MP3-320]/01 - Mike Tramp - All of My Life.mp3
/Users/imac/Working Folder/XLD/Mike Tramp - Second Time Around (2020) [MP3-V0]/01 - Mike Tramp - All of My Life.mp3
/Users/imac/Working Folder/XLD/Mike Tramp - Second Time Around (2020) [MP3-V2]/01 - Mike Tramp - All of My Life.mp3
Pre-gap length : 00:02:00

Track gain : -8.08 dB
Peak : 0.852936
CRC32 hash (test run) : 1B48C590
CRC32 hash : 1B48C590
CRC32 hash (skip zero) : DA014470
AccurateRip v1 signature : AD88CA88
AccurateRip v2 signature : A3678CAE
->Track not present in AccurateRip database.
Statistics
Read error : 0
Jitter error (maybe fixed) : 0
Retry sector count : 0
Damaged sector count : 0

Track 02
Filename : /Users/imac/Working Folder/XLD/Mike Tramp - Second Time Around (2020) [FLAC]/02 - Mike Tramp - The Road.flac
/Users/imac/Working Folder/XLD/Mike Tramp - Second Time Around (2020) [MP3-320]/02 - Mike Tramp - The Road.mp3
/Users/imac/Working Folder/XLD/Mike Tramp - Second Time Around (2020) [MP3-V0]/02 - Mike Tramp - The Road.mp3
/Users/imac/Working Folder/XLD/Mike Tramp - Second Time Around (2020) [MP3-V2]/02 - Mike Tramp - The Road.mp3
Pre-gap length : 00:01:56

Track gain : -6.89 dB
Peak : 0.852997
CRC32 hash (test run) : 1437D05A
CRC32 hash : 1437D05A
CRC32 hash (skip zero) : C466AA18
AccurateRip v1 signature : CBAD15B5
AccurateRip v2 signature : 0C230833
->Track not present in AccurateRip database.
Statistics
Read error : 0
Jitter error (maybe fixed) : 0
Retry sector count : 0
Damaged sector count : 0

Track 03
Filename : /Users/imac/Working Folder/XLD/Mike Tramp - Second Time Around (2020) [FLAC]/03 - Mike Tramp - Anymore.flac
/Users/imac/Working Folder/XLD/Mike Tramp - Second Time Around (2020) [MP3-320]/03 - Mike Tramp - Anymore.mp3
/Users/imac/Working Folder/XLD/Mike Tramp - Second Time Around (2020) [MP3-V0]/03 - Mike Tramp - Anymore.mp3
/Users/imac/Working Folder/XLD/Mike Tramp - Second Time Around (2020) [MP3-V2]/03 - Mike Tramp - Anymore.mp3
Pre-gap length : 00:01:56

Track gain : -5.30 dB
Peak : 0.852966
CRC32 hash (test run) : 2C24A0E7
CRC32 hash : 2C24A0E7
CRC32 hash (skip zero) : BB1A9539
AccurateRip v1 signature : 38D240B2
AccurateRip v2 signature : 58C48E07
->Track not present in AccurateRip database.
Statistics
Read error : 0
Jitter error (maybe fixed) : 0
Retry sector count : 0
Damaged sector count : 0

Track 04
Filename : /Users/imac/Working Folder/XLD/Mike Tramp - Second Time Around (2020) [FLAC]/04 - Mike Tramp - Come On.flac
/Users/imac/Working Folder/XLD/Mike Tramp - Second Time Around (2020) [MP3-320]/04 - Mike Tramp - Come On.mp3
/Users/imac/Working Folder/XLD/Mike Tramp - Second Time Around (2020) [MP3-V0]/04 - Mike Tramp - Come On.mp3
/Users/imac/Working Folder/XLD/Mike Tramp - Second Time Around (2020) [MP3-V2]/04 - Mike Tramp - Come On.mp3
Pre-gap length : 00:01:56

Track gain : -7.69 dB
Peak : 0.852966
CRC32 hash (test run) : FCE561F1
CRC32 hash : FCE561F1
CRC32 hash (skip zero) : 41E412DC
AccurateRip v1 signature : 66EF2DA9
AccurateRip v2 signature : C97F4860
->Track not present in AccurateRip database.
Statistics
Read error : 0
Jitter error (maybe fixed) : 0
Retry sector count : 0
Damaged sector count : 0

Track 05
Filename : /Users/imac/Working Folder/XLD/Mike Tramp - Second Time Around (2020) [FLAC]/05 - Mike Tramp - Between Good and Bad.flac
/Users/imac/Working Folder/XLD/Mike Tramp - Second Time Around (2020) [MP3-320]/05 - Mike Tramp - Between Good and Bad.mp3
/Users/imac/Working Folder/XLD/Mike Tramp - Second Time Around (2020) [MP3-V0]/05 - Mike Tramp - Between Good and Bad.mp3
/Users/imac/Working Folder/XLD/Mike Tramp - Second Time Around (2020) [MP3-V2]/05 - Mike Tramp - Between Good and Bad.mp3
Pre-gap length : 00:01:56

Track gain : -7.07 dB
Peak : 0.852936
CRC32 hash (test run) : 64093EF9
CRC32 hash : 64093EF9
CRC32 hash (skip zero) : 9768BB46
AccurateRip v1 signature : B28ECD6D
AccurateRip v2 signature : 61293B0D
->Track not present in AccurateRip database.
Statistics
Read error : 0
Jitter error (maybe fixed) : 0
Retry sector count : 0
Damaged sector count : 0

Track 06
Filename : /Users/imac/Working Folder/XLD/Mike Tramp - Second Time Around (2020) [FLAC]/06 - Mike Tramp - Lay Down Your Guns.flac
/Users/imac/Working Folder/XLD/Mike Tramp - Second Time Around (2020) [MP3-320]/06 - Mike Tramp - Lay Down Your Guns.mp3
/Users/imac/Working Folder/XLD/Mike Tramp - Second Time Around (2020) [MP3-V0]/06 - Mike Tramp - Lay Down Your Guns.mp3
/Users/imac/Working Folder/XLD/Mike Tramp - Second Time Around (2020) [MP3-V2]/06 - Mike Tramp - Lay Down Your Guns.mp3
Pre-gap length : 00:01:56

Track gain : -7.34 dB
Peak : 0.852966
CRC32 hash (test run) : 1678CCC2
CRC32 hash : 1678CCC2
CRC32 hash (skip zero) : 8F72BEA7
AccurateRip v1 signature : 59A0CE83
AccurateRip v2 signature : 7BBF8BDF
->Track not present in AccurateRip database.
Statistics
Read error : 0
Jitter error (maybe fixed) : 0
Retry sector count : 0
Damaged sector count : 0

Track 07
Filename : /Users/imac/Working Folder/XLD/Mike Tramp - Second Time Around (2020) [FLAC]/07 - Mike Tramp - Highway.flac
/Users/imac/Working Folder/XLD/Mike Tramp - Second Time Around (2020) [MP3-320]/07 - Mike Tramp - Highway.mp3
/Users/imac/Working Folder/XLD/Mike Tramp - Second Time Around (2020) [MP3-V0]/07 - Mike Tramp - Highway.mp3
/Users/imac/Working Folder/XLD/Mike Tramp - Second Time Around (2020) [MP3-V2]/07 - Mike Tramp - Highway.mp3
Pre-gap length : 00:01:56

Track gain : -7.78 dB
Peak : 0.853027
CRC32 hash (test run) : 98B40015
CRC32 hash : 98B40015
CRC32 hash (skip zero) : 59195231
AccurateRip v1 signature : 13F2A97E
AccurateRip v2 signature : 01F743FA
->Track not present in AccurateRip database.
Statistics
Read error : 0
Jitter error (maybe fixed) : 0
Retry sector count : 0
Damaged sector count : 0

Track 08
Filename : /Users/imac/Working Folder/XLD/Mike Tramp - Second Time Around (2020) [FLAC]/08 - Mike Tramp - No Tomorrow.flac
/Users/imac/Working Folder/XLD/Mike Tramp - Second Time Around (2020) [MP3-320]/08 - Mike Tramp - No Tomorrow.mp3
/Users/imac/Working Folder/XLD/Mike Tramp - Second Time Around (2020) [MP3-V0]/08 - Mike Tramp - No Tomorrow.mp3
/Users/imac/Working Folder/XLD/Mike Tramp - Second Time Around (2020) [MP3-V2]/08 - Mike Tramp - No Tomorrow.mp3
Pre-gap length : 00:01:56

Track gain : -7.85 dB
Peak : 0.853027
CRC32 hash (test run) : 38903E07
CRC32 hash : 38903E07
CRC32 hash (skip zero) : 31212FCC
AccurateRip v1 signature : E8A04028
AccurateRip v2 signature : 918A68E9
->Track not present in AccurateRip database.
Statistics
Read error : 0
Jitter error (maybe fixed) : 0
Retry sector count : 0
Damaged sector count : 0

Track 09
Filename : /Users/imac/Working Folder/XLD/Mike Tramp - Second Time Around (2020) [FLAC]/09 - Mike Tramp - Back to You.flac
/Users/imac/Working Folder/XLD/Mike Tramp - Second Time Around (2020) [MP3-320]/09 - Mike Tramp - Back to You.mp3
/Users/imac/Working Folder/XLD/Mike Tramp - Second Time Around (2020) [MP3-V0]/09 - Mike Tramp - Back to You.mp3
/Users/imac/Working Folder/XLD/Mike Tramp - Second Time Around (2020) [MP3-V2]/09 - Mike Tramp - Back to You.mp3
Pre-gap length : 00:01:56

Track gain : -7.37 dB
Peak : 0.852936
CRC32 hash (test run) : C30E9879
CRC32 hash : C30E9879
CRC32 hash (skip zero) : 92F49CE3
AccurateRip v1 signature : EF5AFB36
AccurateRip v2 signature : F7BB13AE
->Track not present in AccurateRip database.
Statistics
Read error : 0
Jitter error (maybe fixed) : 0
Retry sector count : 0
Damaged sector count : 0

Track 10
Filename : /Users/imac/Working Folder/XLD/Mike Tramp - Second Time Around (2020) [FLAC]/10 - Mike Tramp - When She Cries.flac
/Users/imac/Working Folder/XLD/Mike Tramp - Second Time Around (2020) [MP3-320]/10 - Mike Tramp - When She Cries.mp3
/Users/imac/Working Folder/XLD/Mike Tramp - Second Time Around (2020) [MP3-V0]/10 - Mike Tramp - When She Cries.mp3
/Users/imac/Working Folder/XLD/Mike Tramp - Second Time Around (2020) [MP3-V2]/10 - Mike Tramp - When She Cries.mp3
Pre-gap length : 00:01:56

Track gain : -4.47 dB
Peak : 0.852905
CRC32 hash (test run) : 077BD7B5
CRC32 hash : 077BD7B5
CRC32 hash (skip zero) : 3A46520B
AccurateRip v1 signature : 9059BBD7
AccurateRip v2 signature : 9C149B48
->Track not present in AccurateRip database.
Statistics
Read error : 0
Jitter error (maybe fixed) : 0
Retry sector count : 0
Damaged sector count : 0

No errors occurred

End of status report

––-BEGIN XLD SIGNATURE––-
PDqOmyuuTrAGaytOZz.06El.vaNiMnAZOIcA7ocF7MbTGhA_mvn5QT7KKvxvptMeCIwjQyAcUzVuJVjuOjBV2TdIYAqMiwpGgV75AIS
––-END XLD SIGNATURE––-

Thanks to the Original ripper swampsnake !