Subcategories

Miles Davis - E.S.P. (1965) {2006 DSD Japan Mini LP Edition, SICP 1215}

Posted By: ruskaval
Miles Davis - E.S.P. (1965) {2006 DSD Japan Mini LP Edition, SICP 1215}

Miles Davis - E.S.P. (1965) {2006 DSD Japan Mini LP Edition, SICP 1215}
EAC rip (secure mode) | FLAC+CUE+LOG -> 260 Mb| MP3 @320 -> 115 Mb | Artwork (web)
© 2006 Sony Music Japan / Columbia | SICP 1215
Jazz / Hard Bop / Trumpet


Miles Davis - E.S.P. (1965) {2006 DSD Japan Mini LP Edition, SICP 1215}

ESP marks the beginning of a revitalization for Miles Davis, as his second classic quintet — saxophonist Wayne Shorter, pianist Herbie Hancock, bassist Ron Carter, and drummer Tony Williams — gels, establishing what would become their signature adventurous hard bop. Miles had been moving toward this direction in the two years preceding the release of ESP and he had recorded with everyone outside of Shorter prior to this record, but his addition galvanizes the group, pushing them toward music that was recognizably bop but as adventurous as jazz's avant-garde….more
Personnel: Miles Davis (trumpet); Wayne Shorter (tenor saxophone); Herbie Hancock (piano); Ron Carter (acoustic bass); Tony Williams (drums).

tracklist:
01. E.S.P.
02. Eighty-One
03. Little One
04. R.J.
05. Agitation (Shorter)
07. Mood

Miles Davis - E.S.P. (1965) {2006 DSD Japan Mini LP Edition, SICP 1215}

Exact Audio Copy V0.99 prebeta 5 from 4. May 2009

EAC extraction logfile from 28. August 2010, 17:04

Miles Davis / E.S.P.

Used drive : TSSTcorpCD/DVDW TS-H552L Adapter: 3 ID: 0

Read mode : Secure
Utilize accurate stream : Yes
Defeat audio cache : Yes
Make use of C2 pointers : No

Read offset correction : 6
Overread into Lead-In and Lead-Out : No
Fill up missing offset samples with silence : Yes
Delete leading and trailing silent blocks : No
Null samples used in CRC calculations : Yes
Used interface : Native Win32 interface for Win NT & 2000
Gap handling : Appended to previous track

Used output format : User Defined Encoder
Selected bitrate : 1024 kBit/s
Quality : High
Add ID3 tag : No
Command line compressor : C:\Program Files\FLAC\flac.exe
Additional command line options : -6 -V -T "ARTIST=%a" -T "TITLE=%t" -T "ALBUM=%g" -T "DATE=%y" -T "TRACKNUMBER=%n" -T "GENRE=%m" -T "COMMENT=EAC FLAC -6" %s


TOC of the extracted CD

Track | Start | Length | Start sector | End sector
––––––––––––––––––––––––––––-
1 | 0:00.00 | 5:31.69 | 0 | 24893
2 | 5:31.69 | 6:17.40 | 24894 | 53208
3 | 11:49.34 | 7:21.49 | 53209 | 86332
4 | 19:11.08 | 3:57.04 | 86333 | 104111
5 | 23:08.12 | 7:49.51 | 104112 | 139337
6 | 30:57.63 | 8:33.57 | 139338 | 177869
7 | 39:31.45 | 8:49.43 | 177870 | 217587


Track 1

Filename C:\ruskaval\Miles Davis - E.S.P. (1965) {2006 DSD Japan Mini LP Edition, SICP 1215}\01 - E.S.P..wav

Pre-gap length 0:00:02.00

Peak level 95.3 %
Track quality 100.0 %
Test CRC 92BB5494
Copy CRC 92BB5494
Accurately ripped (confidence 6) [FB33D555]
Copy OK

Track 2

Filename C:\ruskaval\Miles Davis - E.S.P. (1965) {2006 DSD Japan Mini LP Edition, SICP 1215}\02 - Eighty-One.wav

Pre-gap length 0:00:01.44

Peak level 88.3 %
Track quality 99.9 %
Test CRC 7EB1BED1
Copy CRC 7EB1BED1
Accurately ripped (confidence 6) [51144B45]
Copy OK

Track 3

Filename C:\ruskaval\Miles Davis - E.S.P. (1965) {2006 DSD Japan Mini LP Edition, SICP 1215}\03 - Little One.wav

Pre-gap length 0:00:02.33

Peak level 76.4 %
Track quality 99.9 %
Test CRC 220F1227
Copy CRC 220F1227
Accurately ripped (confidence 5) [B6A88193]
Copy OK

Track 4

Filename C:\ruskaval\Miles Davis - E.S.P. (1965) {2006 DSD Japan Mini LP Edition, SICP 1215}\04 - R.J..wav

Pre-gap length 0:00:01.09

Peak level 70.7 %
Track quality 100.0 %
Test CRC C7BFD0ED
Copy CRC C7BFD0ED
Accurately ripped (confidence 6) [35B3D63F]
Copy OK

Track 5

Filename C:\ruskaval\Miles Davis - E.S.P. (1965) {2006 DSD Japan Mini LP Edition, SICP 1215}\05 - Agitation.wav

Peak level 100.0 %
Track quality 100.0 %
Test CRC 840ACA05
Copy CRC 840ACA05
Accurately ripped (confidence 6) [6D536B4D]
Copy OK

Track 6

Filename C:\ruskaval\Miles Davis - E.S.P. (1965) {2006 DSD Japan Mini LP Edition, SICP 1215}\06 - Iris.wav

Pre-gap length 0:00:01.05

Peak level 80.2 %
Track quality 100.0 %
Test CRC 8661F839
Copy CRC 8661F839
Accurately ripped (confidence 6) [594BB8F3]
Copy OK

Track 7

Filename C:\ruskaval\Miles Davis - E.S.P. (1965) {2006 DSD Japan Mini LP Edition, SICP 1215}\07 - Mood.wav

Pre-gap length 0:00:01.09

Peak level 69.3 %
Track quality 100.0 %
Test CRC 342FEE9A
Copy CRC 342FEE9A
Accurately ripped (confidence 6) [F6586D66]
Copy OK


All tracks accurately ripped

No errors occurred

End of status report



Some Miles Davis Albums:
Miles Davis - E.S.P. (1965) {1998 Columbia Remaster}
(compare…)