Tags
Language
Tags

Milt Jackson - Milt Jackson At The Museum Of Modern Art (1965) {Verve Originals rel 2008 B0011221-02}

Posted By: ruskaval
Milt Jackson - Milt Jackson At The Museum Of Modern Art (1965) {Verve Originals rel 2008  B0011221-02}

Milt Jackson - Milt Jackson At The Museum Of Modern Art (1965) {Verve Originals rel 2008 B0011221-02}
EAC rip (secure mode) | FLAC (tracks)+CUE+LOG -> 275 Mb | MP3 @320 -> 97 Mb
Full Artwork @ 300 dpi (jpg) -> 17 Mb | 5% repair rar
© 1965, 2008 Verve / Universal | B0011221-02 | Verve Originals
Jazz / Hard Bop / Modal Music / Soul Jazz / Vibes

One of the hippest Milt Jackson albums of the 60s – a set that definitely lives up to its Museum Of Modern Art setting! The performance is one of the most famous from that museum's well-remembered series of 60s jazz concerts – and it features Milt Jackson's quintet really stretching out nicely – hitting sharper tones and bolder notes than in some of their other sessions of the decade, and possibly picking up a freer feel overall in the live setting. Milt's vibes are wonderfully accompanied by the reeds of Jimmy Heath and piano of Cedar Walton – both players who mix soul and modern elements in the same sort of perfect blend that Jackson hits. And the rhythm section is tightly snapping and soulful – never too groove-oriented, but always conscious of a sense of a swing – thanks to bass from Ron Carter and drums from Candy Finch.
Milt Jackson - Milt Jackson At The Museum Of Modern Art (1965) {Verve Originals rel 2008  B0011221-02}

Milt Jackson at the Museum of Modern Art is one of the many live jazz record dates that should be better known than it is. Perhaps it's because the LP has been unavailable in America since the early '70s; it was released on CD only briefly in Japan. Verve's brilliant Originals series has remedied this situation by issuing the gatefold-sleeve of the LP in a fine edition on compact disc (with the original liner notes pasted into a handsome booklet with the original photos). Released in 1965, shortly after the concert took place, this set is regarded by jazz historians as one of the greatest concerts ever to be performed during the MOMA's terrific free concert series during the '60s. During a rare respite from the Modern Jazz Quartet, Jackson was able to record as a solo artist with musicians of his own caliber. In this case his companions are pianist Cedar Walton, bassist Ron Carter (who was already playing with the Miles Davis Quintet), drummer Candy Finch, and James Moody on flute. The program is a lithe, breezy set of tunes written by Jackson, Walton, and Moody, with two exceptions: a beautiful reading of Jimmy Heath's "The Quota" to open the program, and a leisurely, sensitive stroll through J.J. Johnson's "Enigma." Even encountering this in the 21st century, the easy, symbiotic flow and tight arrangements are quite surprising. Heath's tune is a knotty hard bop number with a tight, brief head, and Jackson takes the first solo with requisite hipness and swing. Moody's flute fills the first chorus a bit and then drops out, leaving the rhythm section to dig into it with Jackson. Moody's solo wraps itself around the fat comping chords of Walton and darts in and out of Carter's hard dancing pulse. This is followed by the Latin tinge of "Novamo" by Jackson. The rhythm section sets out pacing a near charanga, and Jackson and Moody move through it with a beautiful, repetitive, singsong melody that quickly gives way to one of the great vibist's elegant high-register solos. Walton was already in his early thirties when he played with Jackson, and he'd been on the N.Y. scene for a decade, but this was before he became a house pianist with Prestige and well-known as a composer. His tune "Turquoise" is a fiery, fast bop waltz, with a terrific front-line melody for Moody and Jackson. Milt takes the first solo and turns the high notes into a blur of groove and grease. There's terrific humor on the set as well: Jackson's "Flying Saucer" begins in montuno mode. His voice at the intro sounds like something from the Twilight Zone before the rhythm section kicks in and he lays out the melody. Moody takes it away from the montuno feel and turns it toward the blues, but Jackson counters and begins singing in a perfect hepcat confidence, reinforcing the Latin groove. It might be the best tune here. This date is red hot for any fan who lives for jazz with rhythm, swing, and soul in equal tonnage.
Milt Jackson - Milt Jackson At The Museum Of Modern Art (1965) {Verve Originals rel 2008  B0011221-02}


Personnel:
Milt Jackson – vibes
James Moody - reeds
Cedar Walton - piano
Ron Carter - bass
Candy Finch - drums

tracklist:
01 - The Quota
02 - Novamo
03 - Enigma
04 - Turquoise
05 - Chyrise
06 - Montelei
07 - Simplicity & Beauty
08 - Flying Saucer
09 - Namesake

Exact Audio Copy V0.99 prebeta 4 from 23. January 2008

EAC extraction logfile from 2. February 2009, 23:46

Milt Jackson / Milt Jackson At The Museum Of Modern Art

Used drive : TSSTcorpCDDVDW SH-S203N Adapter: 0 ID: 2

Read mode : Secure
Utilize accurate stream : Yes
Defeat audio cache : Yes
Make use of C2 pointers : No

Read offset correction : 6
Overread into Lead-In and Lead-Out : No
Fill up missing offset samples with silence : Yes
Delete leading and trailing silent blocks : No
Null samples used in CRC calculations : Yes
Used interface : Installed external ASPI interface
Gap handling : Appended to previous track

Used output format : User Defined Encoder
Selected bitrate : 768 kBit/s
Quality : High
Add ID3 tag : No
Command line compressor : C:\Program Files\Exact Audio Copy\Flac\flac.exe
Additional command line options : -V -8 -T "artist=%a" -T "title=%t" -T "album=%g" -T "date=%y" -T "tracknumber=%n" -T "genre=%m" -T "comment=EAC 0.99pb4 / FLAC 1.2.1 q8" %s


TOC of the extracted CD

Track | Start | Length | Start sector | End sector
––––––––––––––––––––––––––––-
1 | 0:00.00 | 5:10.43 | 0 | 23292
2 | 5:10.43 | 5:54.62 | 23293 | 49904
3 | 11:05.30 | 3:49.15 | 49905 | 67094
4 | 14:54.45 | 5:21.65 | 67095 | 91234
5 | 20:16.35 | 3:25.18 | 91235 | 106627
6 | 23:41.53 | 5:07.52 | 106628 | 129704
7 | 28:49.30 | 2:52.58 | 129705 | 142662
8 | 31:42.13 | 5:09.33 | 142663 | 165870
9 | 36:51.46 | 4:25.19 | 165871 | 185764


Track 1

Filename J:\New Rips\Milt Jackson - Milt Jackson At The Museum Of Modern Art (1965) [FLAC]\01 - The Quota.wav

Pre-gap length 0:00:02.00

Peak level 100.0 %
Track quality 100.0 %
Test CRC E0EA90C6
Copy CRC E0EA90C6
Track not present in AccurateRip database
Copy OK

Track 2

Filename J:\New Rips\Milt Jackson - Milt Jackson At The Museum Of Modern Art (1965) [FLAC]\02 - Novamo.wav

Peak level 100.0 %
Track quality 100.0 %
Test CRC F8E173F0
Copy CRC F8E173F0
Track not present in AccurateRip database
Copy OK

Track 3

Filename J:\New Rips\Milt Jackson - Milt Jackson At The Museum Of Modern Art (1965) [FLAC]\03 - Enigma.wav

Peak level 100.0 %
Track quality 100.0 %
Test CRC 025926DC
Copy CRC 025926DC
Track not present in AccurateRip database
Copy OK

Track 4

Filename J:\New Rips\Milt Jackson - Milt Jackson At The Museum Of Modern Art (1965) [FLAC]\04 - Turquoise.wav

Peak level 100.0 %
Track quality 100.0 %
Test CRC 85F00299
Copy CRC 85F00299
Track not present in AccurateRip database
Copy OK

Track 5

Filename J:\New Rips\Milt Jackson - Milt Jackson At The Museum Of Modern Art (1965) [FLAC]\05 - Chyrise.wav

Peak level 100.0 %
Track quality 100.0 %
Test CRC 6D5BE6C8
Copy CRC 6D5BE6C8
Track not present in AccurateRip database
Copy OK

Track 6

Filename J:\New Rips\Milt Jackson - Milt Jackson At The Museum Of Modern Art (1965) [FLAC]\06 - Montelei.wav

Peak level 99.4 %
Track quality 100.0 %
Test CRC 4BE8797A
Copy CRC 4BE8797A
Track not present in AccurateRip database
Copy OK

Track 7

Filename J:\New Rips\Milt Jackson - Milt Jackson At The Museum Of Modern Art (1965) [FLAC]\07 - Simplicity & Beauty.wav

Peak level 86.3 %
Track quality 100.0 %
Test CRC 272BC4E9
Copy CRC 272BC4E9
Track not present in AccurateRip database
Copy OK

Track 8

Filename J:\New Rips\Milt Jackson - Milt Jackson At The Museum Of Modern Art (1965) [FLAC]\08 - Flying Saucer.wav

Peak level 95.2 %
Track quality 100.0 %
Test CRC 1340FB78
Copy CRC 1340FB78
Track not present in AccurateRip database
Copy OK

Track 9

Filename J:\New Rips\Milt Jackson - Milt Jackson At The Museum Of Modern Art (1965) [FLAC]\09 - Namesake.wav

Peak level 98.0 %
Track quality 100.0 %
Test CRC A7823702
Copy CRC A7823702
Track not present in AccurateRip database
Copy OK


None of the tracks are present in the AccurateRip database

No errors occurred

End of status report


Milt Jackson - Milt Jackson At The Museum Of Modern Art (1965) {Verve Originals rel 2008  B0011221-02}

Milt Jackson - Milt Jackson At The Museum Of Modern Art (1965) {Verve Originals rel 2008  B0011221-02}



===