Subcategories

Moby Grape - Vintage: The Very Best Of Moby Grape (2CD, 1993) RE-UP

Posted By: perfecta
Moby Grape - Vintage: The Very Best Of Moby Grape (2CD, 1993) RE-UP

Moby Grape - Vintage: The Very Best Of Moby Grape (2CD, 1993)
EAC-FLAC(tracks) with CUEs & LOGs - 809 MB | Full Scans | MP3 CBR 320 Kbps - 318 MB
Psychedelic Rock / Folk Rock / Pop Rock | TT - 139:24 minutes | Label: Columbia/Legacy | Cat. # COL 483958-2

Moby Grape is an American rock group from the 1960s, known for having all five members contribute to singing and songwriting and that collectively merged elements of folk music, blues, country, and jazz together with rock and psychedelic music. Vintage: The Very Best of Moby Grape is an acclaimed retrospective collection of Moby Grape songs, many previously unreleased, originally issued in 1993, as part of Columbia Records' "Legacy" series. Included in the collection was the entire eponymous first album of the group, generally considered to be one of the most important albums of its era.

Moby Grape - Vintage: The Very Best Of Moby Grape (2CD, 1993) RE-UP

allmusic.com says:
It's hard to imagine a better-produced package of Moby Grape's work than this two-disc, 48-track condensation of their best late-'60s recordings. The first disc of this set centers around their entire 1967 self-titled debut LP (included in its entirety), which mixed blues, country, and folk influences with hard-charging psychedelic rock & roll. The result was one of the Summer of Love's more enduring works. The second disc boils their wildly inconsistent 1968-69 material down to a fairly strong and coherent selection. While it doesn't match the peak of the group's initial burst, it features some strong folk and country-rock originals that wear much better in the absence of the bloated jams and half-baked hard rock that could make their albums a chore to sit through. Each disc includes interesting demos, outtakes, and live performances that round out the legacy of this prodigiously talented but ill-fated band, which was overcome by internal strife and label/management difficulties after their promising debut.
Tracks:

CD1:
01. Hey Grandma
02. Mr. Blues
03. Fall On You
04. 8-05
05. Come In The Morning
06. Omaha
07. Naked, If I Want To
08. Rounder
09. Someday
10. Ain't No Use
11. Sitting By The Window
12. Changes
13. Lazy Me
14. Indifference
15. Looper (Audition Version)
16. Sweet Ride
17. Bitter Wind (Alternate Version)
18. The Place And The Time (Alternate Version)
19. Rounder
20. Miller's Blues
21. Changes
22. Hey Grandme (Single Version)
23. Omaha (Single Version)
24. Big

CD2:
01. Skip's Song ("Seeing" Demo - Previously Unissued) (1967)
02. You Can Do Anything (Demo - Previously Unissued) (1967)
03. Murder In My Heart For The Judge (1967)
04. Bitter Wind (1967)
05. Can't Be So Bad (1967)
06. Just Like Gene Autry; A Foxtrot (1968)
07. He (1967)
08. Motocycle Irene (1968)
09. Funky-Tunk (1968)
10. Rose Colored Eyes (1968)
11. If You Can't Learn From Your Mistakes (Peter Solo Version - Previously Unissued) (1968)
12. Ooh Mama Ooh (1968)
13. Ain't That A Shame (1968)
14. Trucking Man (1968)
15. Captain Nemo (1968)
16. What's To Choose (1968)
17. Going Nowhere (1968)
18. I Am Not Willing (1968)
19. It's A Beautiful Day Today (1968)
20. Right Before My Eyes (1969)
21. Truly Fine Citizen (1969)
22. Hoochie (1968)
23. Soul Stew (Previously Unissued) (1968)
24. Seeing (1968)

Following a few seconds of silence there two hidden tracks on Disc Two.
One is an out-take from the recording sessions of "Just Like Gene Autry: A Foxtrot" where Arthur Godfrey records his spoken introduction to the song.
The second is an original radio advertisement for the album Truly Fine Citizen.

Compilation Produced by Bob Irwin.
Mixed and Remastered by Vic Anesini at Sony Music Studios, NY.

Exact Audio Copy V0.99 prebeta 4 from 23. January 2008

EAC extraction logfile from 16. May 2009, 8:27

Moby Grape / The Very Best Of Moby Grape - Vintage - Disc 1

Used drive : TSSTcorpCDDVDW SH-S203B Adapter: 2 ID: 0

Read mode : Secure
Utilize accurate stream : Yes
Defeat audio cache : Yes
Make use of C2 pointers : No

Read offset correction : 6
Overread into Lead-In and Lead-Out : No
Fill up missing offset samples with silence : Yes
Delete leading and trailing silent blocks : No
Null samples used in CRC calculations : Yes
Used interface : Installed external ASPI interface
Gap handling : Appended to previous track

Used output format : User Defined Encoder
Selected bitrate : 320 kBit/s
Quality : High
Add ID3 tag : No
Command line compressor : C:\Program Files\Exact Audio Copy\Flac\flac.exe
Additional command line options : -V -8 -T "artist=%a" -T "title=%t" -T "album=%g" -T "date=%y" -T "tracknumber=%n" -T "genre=%m" %s


TOC of the extracted CD

Track | Start | Length | Start sector | End sector
––––––––––––––––––––––––––––-
1 | 0:00.00 | 2:44.62 | 0 | 12361
2 | 2:44.62 | 2:00.23 | 12362 | 21384
3 | 4:45.10 | 2:50.30 | 21385 | 34164
4 | 7:35.40 | 2:33.12 | 34165 | 45651
5 | 10:08.52 | 2:17.48 | 45652 | 55974
6 | 12:26.25 | 2:45.32 | 55975 | 68381
7 | 15:11.57 | 0:57.58 | 68382 | 72714
8 | 16:09.40 | 2:03.45 | 72715 | 81984
9 | 18:13.10 | 3:31.60 | 81985 | 97869
10 | 21:44.70 | 1:40.17 | 97870 | 105386
11 | 23:25.12 | 2:47.55 | 105387 | 117966
12 | 26:12.67 | 3:24.15 | 117967 | 133281
13 | 29:37.07 | 1:47.60 | 133282 | 141366
14 | 31:24.67 | 4:15.48 | 141367 | 160539
15 | 35:40.40 | 2:39.62 | 160540 | 172526
16 | 38:20.27 | 3:12.20 | 172527 | 186946
17 | 41:32.47 | 2:39.65 | 186947 | 198936
18 | 44:12.37 | 2:24.48 | 198937 | 209784
19 | 46:37.10 | 2:02.67 | 209785 | 219001
20 | 48:40.02 | 6:07.08 | 219002 | 246534
21 | 54:47.10 | 4:20.72 | 246535 | 266106
22 | 59:08.07 | 2:32.70 | 266107 | 277576
23 | 61:41.02 | 2:23.15 | 277577 | 288316
24 | 64:04.17 | 4:44.15 | 288317 | 309631


Track 1

Filename I:\Music\__M__\Moby Grape\Vintage - The Very Best of Moby Grape\Disc 1\01 - Hey Grandma.wav

Pre-gap length 0:00:02.00

Peak level 84.2 %
Track quality 100.0 %
Test CRC 7090D984
Copy CRC 7090D984
Accurately ripped (confidence 7) [27298ABD]
Copy OK

Track 2

Filename I:\Music\__M__\Moby Grape\Vintage - The Very Best of Moby Grape\Disc 1\02 - Mr. Blues.wav

Pre-gap length 0:00:01.62

Peak level 64.9 %
Track quality 100.0 %
Test CRC 48DBBE95
Copy CRC 48DBBE95
Accurately ripped (confidence 6) [D6ADA328]
Copy OK

Track 3

Filename I:\Music\__M__\Moby Grape\Vintage - The Very Best of Moby Grape\Disc 1\03 - Fall On You.wav

Pre-gap length 0:00:01.60

Peak level 69.7 %
Track quality 100.0 %
Test CRC BFD7B961
Copy CRC BFD7B961
Accurately ripped (confidence 6) [38E3D72F]
Copy OK

Track 4

Filename I:\Music\__M__\Moby Grape\Vintage - The Very Best of Moby Grape\Disc 1\04 - 8-05.wav

Pre-gap length 0:00:01.60

Peak level 79.1 %
Track quality 100.0 %
Test CRC 4814EB8E
Copy CRC 4814EB8E
Accurately ripped (confidence 6) [2D8F4BEC]
Copy OK

Track 5

Filename I:\Music\__M__\Moby Grape\Vintage - The Very Best of Moby Grape\Disc 1\05 - Come In The Morning.wav

Pre-gap length 0:00:01.62

Peak level 93.8 %
Track quality 100.0 %
Test CRC BE87D403
Copy CRC BE87D403
Accurately ripped (confidence 6) [C5A7C96E]
Copy OK

Track 6

Filename I:\Music\__M__\Moby Grape\Vintage - The Very Best of Moby Grape\Disc 1\06 - Omaha.wav

Pre-gap length 0:00:01.63

Peak level 88.0 %
Track quality 100.0 %
Test CRC 68AD1DD4
Copy CRC 68AD1DD4
Accurately ripped (confidence 7) [E3D9B8B5]
Copy OK

Track 7

Filename I:\Music\__M__\Moby Grape\Vintage - The Very Best of Moby Grape\Disc 1\07 - Naked, If I Want To.wav

Pre-gap length 0:00:01.62

Peak level 69.9 %
Track quality 99.8 %
Test CRC EF4B252E
Copy CRC EF4B252E
Accurately ripped (confidence 6) [8039CC5A]
Copy OK

Track 8

Filename I:\Music\__M__\Moby Grape\Vintage - The Very Best of Moby Grape\Disc 1\08 - Rounder.wav

Pre-gap length 0:00:01.63

Peak level 74.1 %
Track quality 100.0 %
Test CRC F90A69AF
Copy CRC F90A69AF
Accurately ripped (confidence 5) [742D85BE]
Copy OK

Track 9

Filename I:\Music\__M__\Moby Grape\Vintage - The Very Best of Moby Grape\Disc 1\09 - Someday.wav

Pre-gap length 0:00:01.63

Peak level 99.5 %
Track quality 100.0 %
Test CRC D5BB3DB0
Copy CRC D5BB3DB0
Accurately ripped (confidence 6) [D48077B8]
Copy OK

Track 10

Filename I:\Music\__M__\Moby Grape\Vintage - The Very Best of Moby Grape\Disc 1\10 - Ain't No Use.wav

Pre-gap length 0:00:01.63

Peak level 99.0 %
Track quality 100.0 %
Test CRC 069FE573
Copy CRC 069FE573
Accurately ripped (confidence 6) [7A8F938F]
Copy OK

Track 11

Filename I:\Music\__M__\Moby Grape\Vintage - The Very Best of Moby Grape\Disc 1\11 - Sitting By The Window.wav

Pre-gap length 0:00:01.60

Peak level 79.8 %
Track quality 100.0 %
Test CRC 4CDACAA4
Copy CRC 4CDACAA4
Accurately ripped (confidence 6) [3FBAC5B2]
Copy OK

Track 12

Filename I:\Music\__M__\Moby Grape\Vintage - The Very Best of Moby Grape\Disc 1\12 - Changes.wav

Pre-gap length 0:00:01.62

Peak level 97.9 %
Track quality 99.9 %
Test CRC CE403F83
Copy CRC CE403F83
Accurately ripped (confidence 6) [9CDC669E]
Copy OK

Track 13

Filename I:\Music\__M__\Moby Grape\Vintage - The Very Best of Moby Grape\Disc 1\13 - Lazy Me.wav

Pre-gap length 0:00:01.62

Peak level 89.8 %
Track quality 100.0 %
Test CRC 9EC65EAC
Copy CRC 9EC65EAC
Accurately ripped (confidence 5) [924D9DC3]
Copy OK

Track 14

Filename I:\Music\__M__\Moby Grape\Vintage - The Very Best of Moby Grape\Disc 1\14 - Indifference.wav

Pre-gap length 0:00:01.62

Peak level 95.1 %
Track quality 100.0 %
Test CRC 93BE82BC
Copy CRC 93BE82BC
Accurately ripped (confidence 6) [C6F0F253]
Copy OK

Track 15

Filename I:\Music\__M__\Moby Grape\Vintage - The Very Best of Moby Grape\Disc 1\15 - Looper.wav

Pre-gap length 0:00:01.60

Peak level 99.8 %
Track quality 100.0 %
Test CRC 9EE5D8B8
Copy CRC 9EE5D8B8
Accurately ripped (confidence 6) [DDAF2B89]
Copy OK

Track 16

Filename I:\Music\__M__\Moby Grape\Vintage - The Very Best of Moby Grape\Disc 1\16 - Sweet Ride.wav

Pre-gap length 0:00:01.62

Peak level 96.3 %
Track quality 99.9 %
Test CRC 137F715E
Copy CRC 137F715E
Accurately ripped (confidence 6) [ACB6BADC]
Copy OK

Track 17

Filename I:\Music\__M__\Moby Grape\Vintage - The Very Best of Moby Grape\Disc 1\17 - Bitter Wind.wav

Pre-gap length 0:00:01.62

Peak level 93.6 %
Track quality 100.0 %
Test CRC C25EB886
Copy CRC C25EB886
Accurately ripped (confidence 6) [B4538FA5]
Copy OK

Track 18

Filename I:\Music\__M__\Moby Grape\Vintage - The Very Best of Moby Grape\Disc 1\18 - The Place And The Time.wav

Pre-gap length 0:00:01.62

Peak level 99.7 %
Track quality 100.0 %
Test CRC 1BB8300D
Copy CRC 1BB8300D
Accurately ripped (confidence 6) [47A570A5]
Copy OK

Track 19

Filename I:\Music\__M__\Moby Grape\Vintage - The Very Best of Moby Grape\Disc 1\19 - Rounder.wav

Pre-gap length 0:00:01.63

Peak level 93.5 %
Track quality 100.0 %
Test CRC CFF20E3D
Copy CRC CFF20E3D
Accurately ripped (confidence 6) [D765091C]
Copy OK

Track 20

Filename I:\Music\__M__\Moby Grape\Vintage - The Very Best of Moby Grape\Disc 1\20 - Miller's Blues.wav

Peak level 100.0 %
Track quality 100.0 %
Test CRC 51A610AA
Copy CRC 51A610AA
Accurately ripped (confidence 6) [D810DEE6]
Copy OK

Track 21

Filename I:\Music\__M__\Moby Grape\Vintage - The Very Best of Moby Grape\Disc 1\21 - Changes.wav

Peak level 96.8 %
Track quality 100.0 %
Test CRC 4D42DA65
Copy CRC 4D42DA65
Accurately ripped (confidence 6) [017B22D7]
Copy OK

Track 22

Filename I:\Music\__M__\Moby Grape\Vintage - The Very Best of Moby Grape\Disc 1\22 - Hey Grandme.wav

Pre-gap length 0:00:01.62

Peak level 67.9 %
Track quality 100.0 %
Test CRC B1BB9A83
Copy CRC B1BB9A83
Accurately ripped (confidence 7) [0413072B]
Copy OK

Track 23

Filename I:\Music\__M__\Moby Grape\Vintage - The Very Best of Moby Grape\Disc 1\23 - Omaha.wav

Pre-gap length 0:00:01.60

Peak level 75.6 %
Track quality 100.0 %
Test CRC 3905E5D3
Copy CRC 3905E5D3
Accurately ripped (confidence 7) [94DB8CB5]
Copy OK

Track 24

Filename I:\Music\__M__\Moby Grape\Vintage - The Very Best of Moby Grape\Disc 1\24 - Big.wav

Pre-gap length 0:00:01.62

Peak level 99.7 %
Track quality 100.0 %
Test CRC 7417DA22
Copy CRC 7417DA22
Accurately ripped (confidence 5) [A51B4C99]
Copy OK


All tracks accurately ripped

No errors occurred

End of status report

–––––––––––––––––––––-

Exact Audio Copy V0.99 prebeta 4 from 23. January 2008

EAC extraction logfile from 16. May 2009, 8:53

Moby Grape - The Very Best Of Moby Grape - Vintage - / Disc 2

Used drive : TSSTcorpCDDVDW SH-S203B Adapter: 2 ID: 0

Read mode : Secure
Utilize accurate stream : Yes
Defeat audio cache : Yes
Make use of C2 pointers : No

Read offset correction : 6
Overread into Lead-In and Lead-Out : No
Fill up missing offset samples with silence : Yes
Delete leading and trailing silent blocks : No
Null samples used in CRC calculations : Yes
Used interface : Installed external ASPI interface
Gap handling : Appended to previous track

Used output format : User Defined Encoder
Selected bitrate : 320 kBit/s
Quality : High
Add ID3 tag : No
Command line compressor : C:\Program Files\Exact Audio Copy\Flac\flac.exe
Additional command line options : -V -8 -T "artist=%a" -T "title=%t" -T "album=%g" -T "date=%y" -T "tracknumber=%n" -T "genre=%m" %s


TOC of the extracted CD

Track | Start | Length | Start sector | End sector
––––––––––––––––––––––––––––-
1 | 0:00.00 | 3:24.50 | 0 | 15349
2 | 3:24.50 | 2:50.43 | 15350 | 28142
3 | 6:15.18 | 2:59.30 | 28143 | 41597
4 | 9:14.48 | 3:07.52 | 41598 | 55674
5 | 12:22.25 | 3:26.55 | 55675 | 71179
6 | 15:49.05 | 2:56.68 | 71180 | 84447
7 | 18:45.73 | 3:37.72 | 84448 | 100794
8 | 22:23.70 | 2:25.73 | 100795 | 111742
9 | 24:49.68 | 2:13.15 | 111743 | 121732
10 | 27:03.08 | 4:20.35 | 121733 | 141267
11 | 31:23.43 | 1:26.02 | 141268 | 147719
12 | 32:49.45 | 2:28.43 | 147720 | 158862
13 | 35:18.13 | 2:30.67 | 158863 | 170179
14 | 37:49.05 | 2:02.38 | 170180 | 179367
15 | 39:51.43 | 1:46.12 | 179368 | 187329
16 | 41:37.55 | 1:57.50 | 187330 | 196154
17 | 43:35.30 | 2:04.30 | 196155 | 205484
18 | 45:39.60 | 3:00.60 | 205485 | 219044
19 | 48:40.45 | 3:07.70 | 219045 | 233139
20 | 51:48.40 | 2:05.40 | 233140 | 242554
21 | 53:54.05 | 1:49.00 | 242555 | 250729
22 | 55:43.05 | 4:25.10 | 250730 | 270614
23 | 60:08.15 | 2:20.13 | 270615 | 281127
24 | 62:28.28 | 8:07.00 | 281128 | 317652


Track 1

Filename I:\Music\__M__\Moby Grape\Vintage - The Very Best of Moby Grape\Disc 2\01 - Skip's Song (Demo - Previously Unissued) (1967).wav

Pre-gap length 0:00:02.00

Peak level 95.1 %
Track quality 100.0 %
Test CRC 6B9EF54C
Copy CRC 6B9EF54C
Accurately ripped (confidence 7) [D0446A51]
Copy OK

Track 2

Filename I:\Music\__M__\Moby Grape\Vintage - The Very Best of Moby Grape\Disc 2\02 - You Can Do Anything (Demo - Previously Unissued) (1967).wav

Pre-gap length 0:00:01.62

Peak level 94.2 %
Track quality 100.0 %
Test CRC 9FE39EC6
Copy CRC 9FE39EC6
Accurately ripped (confidence 7) [947A33F8]
Copy OK

Track 3

Filename I:\Music\__M__\Moby Grape\Vintage - The Very Best of Moby Grape\Disc 2\03 - Murder In My Heart For The Judge (1967).wav

Pre-gap length 0:00:01.65

Peak level 98.2 %
Track quality 100.0 %
Test CRC 5A6B6040
Copy CRC 5A6B6040
Accurately ripped (confidence 7) [348A1BC1]
Copy OK

Track 4

Filename I:\Music\__M__\Moby Grape\Vintage - The Very Best of Moby Grape\Disc 2\04 - Bitter Wind (1967).wav

Pre-gap length 0:00:01.65

Peak level 78.9 %
Track quality 100.0 %
Test CRC 8B47B95F
Copy CRC 8B47B95F
Accurately ripped (confidence 7) [A8FF8954]
Copy OK

Track 5

Filename I:\Music\__M__\Moby Grape\Vintage - The Very Best of Moby Grape\Disc 2\05 - Can't Be So Bad (1967).wav

Pre-gap length 0:00:01.62

Peak level 100.0 %
Track quality 100.0 %
Test CRC D8DDC97A
Copy CRC D8DDC97A
Accurately ripped (confidence 7) [A27C0F53]
Copy OK

Track 6

Filename I:\Music\__M__\Moby Grape\Vintage - The Very Best of Moby Grape\Disc 2\06 - Just Like Gene Autry; A Foxtrot 81968).wav

Pre-gap length 0:00:01.62

Peak level 73.7 %
Track quality 100.0 %
Test CRC B0098AD8
Copy CRC B0098AD8
Accurately ripped (confidence 7) [DFB2DBE5]
Copy OK

Track 7

Filename I:\Music\__M__\Moby Grape\Vintage - The Very Best of Moby Grape\Disc 2\07 - He (1967).wav

Pre-gap length 0:00:01.63

Peak level 83.3 %
Track quality 100.0 %
Test CRC ECCFF35B
Copy CRC ECCFF35B
Accurately ripped (confidence 6) [10DAEA6F]
Copy OK

Track 8

Filename I:\Music\__M__\Moby Grape\Vintage - The Very Best of Moby Grape\Disc 2\08 - Motocycle Irene (1968).wav

Pre-gap length 0:00:01.62

Peak level 99.7 %
Track quality 100.0 %
Test CRC C827872B
Copy CRC C827872B
Accurately ripped (confidence 6) [02FC0D21]
Copy OK

Track 9

Filename I:\Music\__M__\Moby Grape\Vintage - The Very Best of Moby Grape\Disc 2\09 - Funky-Tunk (1968).wav

Pre-gap length 0:00:01.63

Peak level 87.4 %
Track quality 100.0 %
Test CRC D60354FE
Copy CRC D60354FE
Accurately ripped (confidence 7) [038FA668]
Copy OK

Track 10

Filename I:\Music\__M__\Moby Grape\Vintage - The Very Best of Moby Grape\Disc 2\10 - Rose Colored Eyes (1968).wav

Pre-gap length 0:00:01.63

Peak level 99.8 %
Track quality 100.0 %
Test CRC 8C199F3D
Copy CRC 8C199F3D
Accurately ripped (confidence 7) [21F1DF99]
Copy OK

Track 11

Filename I:\Music\__M__\Moby Grape\Vintage - The Very Best of Moby Grape\Disc 2\11 - If You Can't Learn From Your Mistakes (Peter Solo Version - Previously Unissued) (1968).wav

Pre-gap length 0:00:01.63

Peak level 51.5 %
Track quality 100.0 %
Test CRC 2A84AAE8
Copy CRC 2A84AAE8
Accurately ripped (confidence 7) [C19C724A]
Copy OK

Track 12

Filename I:\Music\__M__\Moby Grape\Vintage - The Very Best of Moby Grape\Disc 2\12 - Ooh Mama Ooh (1968).wav

Pre-gap length 0:00:01.62

Peak level 96.4 %
Track quality 100.0 %
Test CRC 2C114900
Copy CRC 2C114900
Accurately ripped (confidence 7) [54FA5856]
Copy OK

Track 13

Filename I:\Music\__M__\Moby Grape\Vintage - The Very Best of Moby Grape\Disc 2\13 - Ain't That A Shame (1968).wav

Pre-gap length 0:00:01.63

Peak level 87.6 %
Track quality 100.0 %
Test CRC 7A621E32
Copy CRC 7A621E32
Accurately ripped (confidence 7) [4F070F93]
Copy OK

Track 14

Filename I:\Music\__M__\Moby Grape\Vintage - The Very Best of Moby Grape\Disc 2\14 - Trucking Man (1968).wav

Pre-gap length 0:00:01.62

Peak level 90.3 %
Track quality 99.9 %
Test CRC 2B17D3F7
Copy CRC 2B17D3F7
Accurately ripped (confidence 7) [00D2CAA1]
Copy OK

Track 15

Filename I:\Music\__M__\Moby Grape\Vintage - The Very Best of Moby Grape\Disc 2\15 - Captain Nemo (1968).wav

Pre-gap length 0:00:01.63

Peak level 88.4 %
Track quality 100.0 %
Test CRC 40AD11FA
Copy CRC 40AD11FA
Accurately ripped (confidence 7) [4312CFB7]
Copy OK

Track 16

Filename I:\Music\__M__\Moby Grape\Vintage - The Very Best of Moby Grape\Disc 2\16 - What's To Choose (1968).wav

Pre-gap length 0:00:01.62

Peak level 81.3 %
Track quality 100.0 %
Test CRC E4EC4EF6
Copy CRC E4EC4EF6
Accurately ripped (confidence 7) [10BD77C2]
Copy OK

Track 17

Filename I:\Music\__M__\Moby Grape\Vintage - The Very Best of Moby Grape\Disc 2\17 - Going Nowhere (1968).wav

Peak level 99.9 %
Track quality 100.0 %
Test CRC 26754814
Copy CRC 26754814
Accurately ripped (confidence 7) [5C5956DC]
Copy OK

Track 18

Filename I:\Music\__M__\Moby Grape\Vintage - The Very Best of Moby Grape\Disc 2\18 - I Am Not Willing (1968).wav

Pre-gap length 0:00:01.65

Peak level 90.9 %
Track quality 100.0 %
Test CRC F21335EE
Copy CRC F21335EE
Accurately ripped (confidence 7) [8C1357D6]
Copy OK

Track 19

Filename I:\Music\__M__\Moby Grape\Vintage - The Very Best of Moby Grape\Disc 2\19 - It's A Beautiful Day Today (1968).wav

Pre-gap length 0:00:01.62

Peak level 69.3 %
Track quality 99.9 %
Test CRC C9C8E3AD
Copy CRC C9C8E3AD
Accurately ripped (confidence 7) [D5976CAD]
Copy OK

Track 20

Filename I:\Music\__M__\Moby Grape\Vintage - The Very Best of Moby Grape\Disc 2\20 - Right Before My Eyes (1969).wav

Pre-gap length 0:00:01.62

Peak level 95.3 %
Track quality 99.9 %
Test CRC 69796693
Copy CRC 69796693
Accurately ripped (confidence 7) [1971EBC6]
Copy OK

Track 21

Filename I:\Music\__M__\Moby Grape\Vintage - The Very Best of Moby Grape\Disc 2\21 - Truly Fine Citizen (1969).wav

Pre-gap length 0:00:01.62

Peak level 92.3 %
Track quality 100.0 %
Test CRC 3938A38E
Copy CRC 3938A38E
Accurately ripped (confidence 6) [4540089E]
Copy OK

Track 22

Filename I:\Music\__M__\Moby Grape\Vintage - The Very Best of Moby Grape\Disc 2\22 - Hoochie (1968).wav

Pre-gap length 0:00:01.62

Peak level 100.0 %
Track quality 100.0 %
Test CRC 0D8562BB
Copy CRC 0D8562BB
Accurately ripped (confidence 7) [81C92B50]
Copy OK

Track 23

Filename I:\Music\__M__\Moby Grape\Vintage - The Very Best of Moby Grape\Disc 2\23 - Soul Stew (Previously Unissued) (1968).wav

Pre-gap length 0:00:01.62

Peak level 93.6 %
Track quality 100.0 %
Test CRC 61EF4244
Copy CRC 61EF4244
Accurately ripped (confidence 6) [9CAE8A21]
Copy OK

Track 24

Filename I:\Music\__M__\Moby Grape\Vintage - The Very Best of Moby Grape\Disc 2\24 - Seeing.wav

Pre-gap length 0:00:01.63

Peak level 95.1 %
Track quality 100.0 %
Test CRC 0D9602DF
Copy CRC 0D9602DF
Accurately ripped (confidence 6) [3620F165]
Copy OK


All tracks accurately ripped

No errors occurred

End of status report


Thanks to the original ripper!