Tags
Language
Tags

Thelonious Monk & Gerry Mulligan - Mulligan Meets Monk (1957) {OJC Remasters Complete Series rel 2013, item 24of33}

Posted By: ruskaval
Thelonious Monk & Gerry Mulligan - Mulligan Meets Monk (1957) {OJC Remasters Complete Series rel 2013, item 24of33}

Thelonious Monk & Gerry Mulligan - Mulligan Meets Monk (1957) {OJC Remasters Complete Series rel 2013, item 24of33}
EAC rip (secure mode) | FLAC (tracks)+CUE+LOG -> 410 Mb | MP3 @320 -> 158 Mb
Full Artwork @ 600 dpi (png) -> 146 Mb | 5% repair rar | 24-bit remaster
© 1957, 2013 Riverside / Concord | 60th Anniversary of Riverside Records | 0888072345904
Jazz / Cool / Bop / Saxophone / Piano

Concord Music Group will release five new titles in its Original Jazz Classics Remasters series. Enhanced by 24-bit remastering by Joe Tarantino, several bonus tracks on nearly each disc (some previously unreleased) and new liner notes providing historical context to the original material, the series celebrates the 60th anniversary of Riverside Records, the prolific New York-based label that showcased some of the most influential jazz artists and recordings of the 1950s and '60s.

The five titles are:
Thelonious Monk & Gerry Mulligan: Mulligan Meets Monk | Bill Evans Trio: How My Heart Sings! | Wes Montgomery: So Much Guitar! | Cannonball Adderley & Milt Jackson: Things Are Getting Better | Chet Baker Plays the Best of Lerner and Loewe.


Riverside was launched in 1953 in New York on a shoestring budget by traditional-jazz enthusiasts Bill Grauer and Orrin Keepnews as a platform to reissue jazz and blues recordings from the 1920s by King Oliver, Jelly Roll Morton, Ma Rainey, Blind Lemon Jefferson, and others. Over the next decade, the label evolved into one of the premier purveyors of modern jazz. With Keepnews producing the sessions (and often writing the liner notes), Riverside brought jazz giants like Thelonious Monk, Bill Evans, Cannonball Adderley, and Wes Montgomery to the forefront of American music. Despite successes with these and other jazz and blues artists - including Sonny Rollins, Abbey Lincoln, Art Blakey, Mongo Santamaria, John Lee Hooker, Jimmy Heath, Charlie Byrd, and the Staple Singers - Riverside folded in 1964, a year after Grauer's death. The catalog was acquired by Fantasy in 1972, and Fantasy was in turn acquired by Concord Music Group in late 2004.

All five Riverside titles in the current round of reissues were originally produced by Keepnews and include his original liner notes. All reflect the ambitious depth and scope of influential jazz captured in the Riverside catalog over the relatively short span of 11 years.
Thelonious Monk & Gerry Mulligan - Mulligan Meets Monk (1957) {OJC Remasters Complete Series rel 2013, item 24of33}

Thelonious Monk & Gerry Mulligan: Mulligan Meets Monk

Recorded in mid August 1957, Mulligan Meets Monk is a summit of two artists from two very different and distinct worlds - Monk representing what was then known as East Coast jazz, and Mulligan deeply rooted in a West Coast sound. Rounding out the quartet are bassist Wilbur Ware and drummer Shadow Wilson. Even with the two frontmen's disparate styles, the unlikely pairing resulted in an engaging and enduring recording, according to Neil Tesser's new liner notes.

"Despite their radically different personalities, and their almost antipodal approach to improvising, Monk and Mulligan found common ground in composition," says Tesser. "Not in the songs themselves - no one would ever mistake one of Monk's for one of Mulligan's - but in their devotion to the craft, and their admiration for the balanced, well-turned tune. That devotion manifested itself quite differently in their individual musics, but it provided the foundation for their unimagined friendship . . . and allowed them to join in this unexpectedly successful venture."

Bonus tracks on the Mulligan Meets Monk reissue are alternate takes of the Mulligan composition "Decidedly" and Monk's "Straight, No Chaser," along with two alternate takes of the Monk/Coleman Hawkins piece "I Mean You."

Personnel:
Gerry Mulligan - baritone saxophone
Thelonious Monk - piano
Wilbur Ware - bass
Shadow Wilson - drums

tracklist:
01 - 'Round Midnight
02 - Rythm-A-Ning
03 - Sweet And Lovely
04 - Decidedly (Take 4)
05 - Straight, No Chaser (Take 3)
06 - I Mean You (Take 4)
07 - Decidedly (Take 5) (bonus track)
08 - Straight, No Chaser (Take 1) (bonus track)
09 - I Mean You (Take 1) (bonus track)
10 - I Mean You (Take 2) (bonus track)

Exact Audio Copy V1.0 beta 3 from 29. August 2011

EAC extraction logfile from 6. June 2014, 11:12

Thelonius Monk & Gerry Mulligan / Mulligan Meets Monk

Used drive : ATAPI iHAS124 B Adapter: 2 ID: 1

Read mode : Secure
Utilize accurate stream : Yes
Defeat audio cache : Yes
Make use of C2 pointers : No

Read offset correction : 6
Overread into Lead-In and Lead-Out : No
Fill up missing offset samples with silence : Yes
Delete leading and trailing silent blocks : No
Null samples used in CRC calculations : Yes
Used interface : Native Win32 interface for Win NT & 2000
Gap handling : Appended to previous track

Used output format : User Defined Encoder
Selected bitrate : 1024 kBit/s
Quality : High
Add ID3 tag : No
Command line compressor : C:\Program Files (x86)\FLAC Frontend\tools\flac.exe
Additional command line options : -8 -V -T "ARTIST=%artist%" -T "TITLE=%title%" -T "ALBUM=%albumtitle%" -T "DATE=%year%" -T "TRACKNUMBER=%tracknr%" -T "TOTALTRACKS=%numtracks%" -T "GENRE=%genre%" -T "ALBUMARTIST=%albumartist%" -T "ALBUM ARTIST=%albumartist%" -T "COMMENT=EAC Secure Mode, Test & Copy, AccurateRip, FLAC -8" %source%


TOC of the extracted CD

Track | Start | Length | Start sector | End sector
––––––––––––––––––––––––––––-
1 | 0:00.00 | 8:28.24 | 0 | 38123
2 | 8:28.24 | 5:19.15 | 38124 | 62063
3 | 13:47.39 | 7:17.73 | 62064 | 94911
4 | 21:05.37 | 5:54.73 | 94912 | 121534
5 | 27:00.35 | 6:59.28 | 121535 | 152987
6 | 33:59.63 | 6:53.62 | 152988 | 184024
7 | 40:53.50 | 6:38.74 | 184025 | 213948
8 | 47:32.49 | 5:30.27 | 213949 | 238725
9 | 53:03.01 | 6:24.73 | 238726 | 267598
10 | 59:27.74 | 6:31.33 | 267599 | 296956


Track 1

Filename C:\Thelonious Monk & Gerry Mulligan - Mulligan Meets Monk (1957) {2013 Riverside 60th} [OJC Remasters Complete Series]\01 - 'Round Midnight.wav

Pre-gap length 0:00:02.00

Peak level 100.0 %
Extraction speed 4.0 X
Track quality 100.0 %
Test CRC 64A2BB6A
Copy CRC 64A2BB6A
Accurately ripped (confidence 3) [1B3C23E2] (AR v2)
Copy OK

Track 2

Filename C:\Thelonious Monk & Gerry Mulligan - Mulligan Meets Monk (1957) {2013 Riverside 60th} [OJC Remasters Complete Series]\02 - Rythm-A-Ning.wav

Peak level 100.0 %
Extraction speed 4.5 X
Track quality 100.0 %
Test CRC E7D02ABC
Copy CRC E7D02ABC
Accurately ripped (confidence 3) [17932B2F] (AR v2)
Copy OK

Track 3

Filename C:\Thelonious Monk & Gerry Mulligan - Mulligan Meets Monk (1957) {2013 Riverside 60th} [OJC Remasters Complete Series]\03 - Sweet And Lovely.wav

Peak level 100.0 %
Extraction speed 5.2 X
Track quality 100.0 %
Test CRC D456567C
Copy CRC D456567C
Accurately ripped (confidence 3) [4B8B64CE] (AR v2)
Copy OK

Track 4

Filename C:\Thelonious Monk & Gerry Mulligan - Mulligan Meets Monk (1957) {2013 Riverside 60th} [OJC Remasters Complete Series]\04 - Decidedly (Take 4).wav

Peak level 100.0 %
Extraction speed 5.5 X
Track quality 100.0 %
Test CRC 69B24FE5
Copy CRC 69B24FE5
Accurately ripped (confidence 3) [62523197] (AR v2)
Copy OK

Track 5

Filename C:\Thelonious Monk & Gerry Mulligan - Mulligan Meets Monk (1957) {2013 Riverside 60th} [OJC Remasters Complete Series]\05 - Straight, No Chaser (Take 3).wav

Peak level 100.0 %
Extraction speed 6.0 X
Track quality 100.0 %
Test CRC F38647A5
Copy CRC F38647A5
Accurately ripped (confidence 3) [5E4CDA50] (AR v2)
Copy OK

Track 6

Filename C:\Thelonious Monk & Gerry Mulligan - Mulligan Meets Monk (1957) {2013 Riverside 60th} [OJC Remasters Complete Series]\06 - I Mean You (Take 4).wav

Peak level 100.0 %
Extraction speed 6.5 X
Track quality 100.0 %
Test CRC 89B473CD
Copy CRC 89B473CD
Accurately ripped (confidence 3) [4BAF074B] (AR v2)
Copy OK

Track 7

Filename C:\Thelonious Monk & Gerry Mulligan - Mulligan Meets Monk (1957) {2013 Riverside 60th} [OJC Remasters Complete Series]\07 - Decidedly (Take 5) (bonus track).wav

Peak level 99.9 %
Extraction speed 6.8 X
Track quality 100.0 %
Test CRC 3A9BF23D
Copy CRC 3A9BF23D
Accurately ripped (confidence 3) [DF32247C] (AR v2)
Copy OK

Track 8

Filename C:\Thelonious Monk & Gerry Mulligan - Mulligan Meets Monk (1957) {2013 Riverside 60th} [OJC Remasters Complete Series]\08 - Straight, No Chaser (Take 1) (bonus track).wav

Peak level 100.0 %
Extraction speed 5.9 X
Track quality 99.9 %
Test CRC EA517EBC
Copy CRC EA517EBC
Accurately ripped (confidence 3) [3D18A3A2] (AR v2)
Copy OK

Track 9

Filename C:\Thelonious Monk & Gerry Mulligan - Mulligan Meets Monk (1957) {2013 Riverside 60th} [OJC Remasters Complete Series]\09 - I Mean You (Take 1) (bonus track).wav

Peak level 100.0 %
Extraction speed 7.4 X
Track quality 100.0 %
Test CRC F8DE9EBA
Copy CRC F8DE9EBA
Accurately ripped (confidence 3) [F4155C1B] (AR v2)
Copy OK

Track 10

Filename C:\Thelonious Monk & Gerry Mulligan - Mulligan Meets Monk (1957) {2013 Riverside 60th} [OJC Remasters Complete Series]\10 - I Mean You (Take 2) (bonus track).wav

Peak level 100.0 %
Extraction speed 6.6 X
Track quality 99.9 %
Test CRC E6EAEAE5
Copy CRC E6EAEAE5
Accurately ripped (confidence 3) [2FE827BC] (AR v2)
Copy OK


All tracks accurately ripped

No errors occurred

End of status report

==== Log checksum 08006585B6D1420F71D964C5F17FFCFA5B6B901A3334D010399E6DDB7F4A0DED ====


Thelonious Monk & Gerry Mulligan - Mulligan Meets Monk (1957) {OJC Remasters Complete Series rel 2013, item 24of33}

Thelonious Monk & Gerry Mulligan - Mulligan Meets Monk (1957) {OJC Remasters Complete Series rel 2013, item 24of33}


see more OJC Remasters Complete Series…


===